<?xml version="1.0" standalone="no"?>
<!DOCTYPE svg PUBLIC "-//W3C//DTD SVG 1.1//EN" "http://www.w3.org/Graphics/SVG/1.1/DTD/svg11.dtd" >
<svg xmlns="http://www.w3.org/2000/svg" xmlns:xlink="http://www.w3.org/1999/xlink" version="1.1">
<metadata>
Created by FontForge 20141024 at Wed Feb 11 16:07:59 2015
 By System Administrator
Copyright (c) 1981, 1982, 1983, 1989 and 1993, Linotype Library GmbH or its affiliated Linotype-Hell companies. All rights reserved.

The digitally encoded machine readable software for producing the Typefaces licensed to you is now the property of Heidelberger Druckmaschinen AG and its licensors, and may not be reproduced, used, displayed, modified, disclosed or transferred without the express written approval of Heidelberger Druckmaschinen AG.

Copyright (c) 1988, 1990, 1993 Adobe Systems Incorporated. All Rights Reserved.
</metadata>
<defs>
<font id="HelveticaNeue-Light" horiz-adv-x="556" >
  <font-face 
    font-family="Helvetica Neue"
    font-weight="300"
    font-stretch="normal"
    units-per-em="1000"
    panose-1="2 0 4 3 0 0 0 2 0 4"
    ascent="800"
    descent="-200"
    x-height="516"
    cap-height="714"
    bbox="-430 -305 1987 1163"
    underline-thickness="50"
    underline-position="-75"
    unicode-range="U+0008-FE48"
  />
<missing-glyph horiz-adv-x="500" 
d="M442 8h-384v496h384v-496zM50 512v-512h400v512h-400z" />
    <glyph glyph-name="fi" unicode="fi" horiz-adv-x="444" 
d="M320 714v-101h63v101h-63zM94 463v-463h63v463h102v53h-102v45q0 21 1 39t7.5 31.5t20.5 21.5t40 8q11 0 22 -1.5t24 -3.5v54q-15 2 -27 3t-26 1q-38 0 -62.5 -11t-38.5 -31t-19 -48t-5 -61v-47h-88v-53h88zM320 516v-516h63v516h-63z" />
    <glyph glyph-name="fl" unicode="fl" horiz-adv-x="444" 
d="M320 714v-714h63v714h-63zM94 463v-463h63v463h102v53h-102v45q0 21 1 39t7.5 31.5t20.5 21.5t40 8q11 0 22 -1.5t24 -3.5v54q-15 2 -27 3t-26 1q-38 0 -62.5 -11t-38.5 -31t-19 -48t-5 -61v-47h-88v-53h88z" />
    <glyph glyph-name=".notdef" horiz-adv-x="500" 
d="M442 8h-384v496h384v-496zM50 512v-512h400v512h-400z" />
    <glyph glyph-name=".null" horiz-adv-x="0" 
 />
    <glyph glyph-name="uniE001" horiz-adv-x="278" 
 />
    <glyph glyph-name="space" unicode=" " horiz-adv-x="278" 
 />
    <glyph glyph-name="controlBS" horiz-adv-x="0" 
 />
    <glyph glyph-name="controlHT" unicode="&#x9;" horiz-adv-x="278" 
 />
    <glyph glyph-name="controlCR" unicode="&#xd;" horiz-adv-x="278" 
 />
    <glyph glyph-name="controlGS" horiz-adv-x="0" 
 />
    <glyph glyph-name="exclam" unicode="!" horiz-adv-x="241" 
d="M79 0h84v106h-84v-106zM87 501l15 -323h38l15 323v213h-68v-213z" />
    <glyph glyph-name="quotedbl" unicode="&#x22;" horiz-adv-x="370" 
d="M220 714v-243h63v243h-63zM87 714v-243h63v243h-63z" />
    <glyph glyph-name="numbersign" unicode="#" 
d="M223 424h141l-22 -156h-141zM497 223v45h-105l22 156h111v45h-105l31 222h-50l-31 -222h-141l31 222h-50l-31 -222h-116v-45h110l-22 -156h-116v-45h110l-31 -223h50l31 223h141l-31 -223h50l31 223h111z" />
    <glyph glyph-name="dollar" unicode="$" 
d="M92 228h-63q4 -114 57.5 -172t170.5 -69v-86h39v85q44 0 85.5 12.5t74 37.5t52 62.5t19.5 86.5q0 53 -20 87.5t-52.5 57.5t-74 36t-84.5 22v288q66 0 107 -44.5t42 -119.5h63q1 49 -15.5 89t-46 68.5t-68 44t-82.5 15.5v78h-39v-78q-43 0 -81.5 -13.5t-67 -39t-45 -61.5
t-16.5 -81q0 -52 17 -86.5t45.5 -57t67 -35t80.5 -21.5v-296q-79 9 -121.5 55.5t-43.5 134.5zM257 676v-279q-28 7 -54.5 15t-47 22t-33 36t-12.5 57q0 39 11.5 67.5t32 46.5t47 26.5t56.5 8.5zM296 38v288q29 -7 59 -17t54 -25.5t39.5 -39.5t15.5 -60q0 -39 -14.5 -66.5
t-38 -45.5t-53.5 -26t-62 -8z" />
    <glyph glyph-name="percent" unicode="%" horiz-adv-x="889" 
d="M228 706q-42 0 -72.5 -14.5t-49.5 -40t-28 -60t-9 -74.5t9 -74.5t28 -60t49.5 -40t72.5 -14.5t72.5 14.5t49.5 40t28 60t9 74.5t-9 74.5t-28 60t-49.5 40t-72.5 14.5zM667 318q31 0 51.5 -13.5t32.5 -35t17 -47t5 -49.5t-5 -49t-17 -46t-32.5 -34.5t-51.5 -13.5
q-32 0 -52.5 13.5t-32.5 34.5t-16.5 46t-4.5 49t4.5 49.5t16.5 47t32.5 35t52.5 13.5zM667 363q-42 0 -72.5 -14.5t-49.5 -40t-28 -60t-9 -74.5t9 -74.5t28 -60t49.5 -39.5t72.5 -14t72.5 14t49.5 39.5t28 60t9 74.5t-9 74.5t-28 60t-49.5 40t-72.5 14.5zM643 725l-453 -758
h48l452 758h-47zM228 661q31 0 51.5 -13.5t32.5 -35t17 -47t5 -49.5t-5 -49t-17 -46t-32.5 -34.5t-51.5 -13.5q-32 0 -52.5 13.5t-32.5 34.5t-16.5 46t-4.5 49t4.5 49.5t16.5 47t32.5 35t52.5 13.5z" />
    <glyph glyph-name="ampersand" unicode="&#x26;" horiz-adv-x="611" 
d="M284 661q39 0 67 -23.5t28 -68.5q0 -26 -10 -47.5t-26 -39t-35.5 -31.5t-38.5 -26q-12 14 -26 31.5t-26 36t-20 38t-8 38.5q0 45 28 68.5t67 23.5zM465 93l76 -93h79l-120 145q25 46 33.5 93.5t8.5 77.5h-63q0 -41 -4 -67.5t-17 -52.5l-156 188q27 17 52 35.5t44.5 40.5
t31.5 49t12 60t-12.5 59.5t-34 45.5t-50 29.5t-61.5 10.5t-61.5 -10.5t-50 -29.5t-34 -45.5t-12.5 -59.5q0 -26 8.5 -49t21 -44t28 -40.5t30.5 -38.5q-30 -16 -61 -37t-56.5 -47t-41.5 -58t-16 -70q0 -49 16.5 -86t45.5 -62t68.5 -38t85.5 -13q63 0 117 29t93 78zM248 356
l178 -216q-30 -43 -72.5 -72.5t-96.5 -29.5q-30 0 -58 10t-49.5 29t-34.5 45t-13 57q0 32 13 58.5t34 48.5t47 39t52 31z" />
    <glyph glyph-name="quotesingle" unicode="'" horiz-adv-x="278" 
d="M108 714v-243h63v243h-63z" />
    <glyph glyph-name="parenleft" unicode="(" horiz-adv-x="241" 
d="M192 -190h50q-29 46 -52.5 99t-40.5 109.5t-26 113.5t-9 111q0 134 30.5 256t97.5 230h-50q-66 -103 -103.5 -218.5t-37.5 -244.5q0 -66 9.5 -124.5t27.5 -113.5t44.5 -109t59.5 -109z" />
    <glyph glyph-name="parenright" unicode=")" horiz-adv-x="241" 
d="M49 729h-49q27 -48 50.5 -101t40.5 -108.5t26.5 -112.5t9.5 -112q0 -134 -30.5 -255.5t-96.5 -229.5h49q66 103 103.5 218t37.5 244q0 65 -9.5 124t-27.5 114.5t-44.5 109.5t-59.5 109z" />
    <glyph glyph-name="asterisk" unicode="*" horiz-adv-x="352" 
d="M27 595l115 -39l-73 -98l32 -23l73 100l73 -100l32 23l-72 98l118 39l-15 37l-115 -41v123h-39v-123l-115 41z" />
    <glyph glyph-name="plus" unicode="+" horiz-adv-x="600" 
d="M274 503v-225h-225v-53h225v-225h53v225h225v53h-225v225h-53z" />
    <glyph glyph-name="comma" unicode="," horiz-adv-x="278" 
d="M181 106h-84v-106h42q1 -11 -1.5 -25.5t-8.5 -28t-15 -24.5t-21 -15v-43q22 6 38.5 20t27.5 32.5t16.5 40t5.5 43.5v106z" />
    <glyph glyph-name="hyphen" unicode="-" horiz-adv-x="370" 
d="M60 246h250v58h-250v-58z" />
    <glyph glyph-name="period" unicode="." horiz-adv-x="278" 
d="M97 0h84v106h-84v-106z" />
    <glyph glyph-name="slash" unicode="/" horiz-adv-x="333" 
d="M-12 -14h53l305 743h-51z" />
    <glyph glyph-name="zero" unicode="0" 
d="M278 706q-76 0 -124 -33.5t-74.5 -85.5t-36 -116t-9.5 -126q0 -61 9.5 -125t36 -116t74.5 -85t124 -33q77 0 124.5 33t74 85t36 116t9.5 126q0 61 -9.5 125t-36 116t-74 85.5t-124.5 33.5zM278 653q60 0 96 -31t54.5 -77t24.5 -100t6 -99q0 -46 -6 -99.5t-24.5 -100
t-54.5 -77.5t-96 -31t-96 31t-54.5 77.5t-24.5 100t-6 99.5q0 45 6 99t24.5 100t54.5 77t96 31z" />
    <glyph glyph-name="one" unicode="1" 
d="M97 565v-45h185v-520h63v700h-51q-7 -48 -23.5 -74.5t-41 -39.5t-58 -16.5t-74.5 -4.5z" />
    <glyph glyph-name="two" unicode="2" 
d="M497 0v58h-389q6 35 30 64.5t55.5 54.5t65.5 45.5t59 37.5q35 22 66.5 47.5t56 55.5t39 66t14.5 80q0 49 -16.5 86t-46 61.5t-69 37t-85.5 12.5q-57 0 -99.5 -18.5t-70.5 -51.5t-41.5 -78.5t-12.5 -99.5h63q-1 39 7.5 74t27.5 62t49.5 43t73.5 16q32 0 60.5 -9.5t50 -28
t34 -45t12.5 -60.5q0 -42 -14.5 -72.5t-43.5 -59.5t-65.5 -54.5t-73.5 -50t-72 -51t-63 -58.5t-45 -72t-18 -92h461z" />
    <glyph glyph-name="three" unicode="3" 
d="M96 223h-63q-4 -57 12.5 -101t49 -74t78 -46t99.5 -16q48 0 92 13.5t77 40.5t52.5 66.5t19.5 91.5q0 69 -37.5 115.5t-106.5 57.5v2q57 14 87.5 56t30.5 99q0 47 -18.5 80.5t-49 55t-69.5 32t-80 10.5q-51 0 -92 -17.5t-69.5 -48t-44 -72.5t-15.5 -92h63q-1 39 9 71.5
t30.5 56t50.5 36.5t69 13q32 0 59.5 -7.5t48.5 -24t33 -41t12 -59.5q0 -33 -13 -57t-33.5 -39.5t-46 -23t-49.5 -7.5h-53v-53h53q35 0 65.5 -9t53.5 -27.5t36 -46t13 -65.5q0 -37 -15 -66t-40 -49t-57 -30t-67 -10q-42 0 -75.5 13.5t-56 37.5t-34 58t-9.5 76z" />
    <glyph glyph-name="four" unicode="4" 
d="M353 227h-266l264 381h2v-381zM30 235v-61h323v-174h58v174h105v53h-105v473h-57z" />
    <glyph glyph-name="five" unicode="5" 
d="M99 200h-63q1 -50 19 -90t48.5 -67.5t72 -42t90.5 -14.5q50 0 94.5 17.5t77.5 49t52 75t19 94.5q0 53 -16.5 97.5t-47 76.5t-74 50t-97.5 18q-42 0 -82 -17t-66 -48l-2 2l45 232h306v58h-350l-68 -363h54q26 40 67 61.5t89 21.5q39 0 72 -14t56.5 -38.5t37 -57.5
t13.5 -72q0 -38 -12 -72.5t-35 -61t-55 -42t-73 -15.5q-36 0 -67 11.5t-54 33t-36.5 51.5t-14.5 66z" />
    <glyph glyph-name="six" unicode="6" 
d="M442 523h63q-11 93 -66 138t-149 45q-57 0 -98 -20t-68.5 -52t-44 -71.5t-25.5 -78t-11.5 -72.5t-2.5 -55q0 -103 14.5 -173.5t44.5 -114.5t76 -63.5t110 -19.5q52 0 95.5 17.5t75 49t49 75t17.5 94.5t-16.5 94t-46.5 74t-72.5 48.5t-95.5 17.5q-60 0 -110.5 -32
t-75.5 -84h-2q0 48 7 102.5t28 101.5t59 78t99 31t99.5 -36t46.5 -94zM290 403q40 0 71.5 -14.5t53 -39.5t33 -59t11.5 -72q0 -36 -12 -69t-34.5 -57.5t-53 -39t-68.5 -14.5q-46 0 -79 14t-54.5 38.5t-31.5 57.5t-10 70q0 39 11.5 72.5t34 58.5t55 39.5t73.5 14.5z" />
    <glyph glyph-name="seven" unicode="7" 
d="M51 691v-58h387q-73 -83 -124.5 -159t-86 -151.5t-53 -154.5t-24.5 -168h68q6 122 38.5 223.5t76 181t89.5 137t79 91.5v58h-450z" />
    <glyph glyph-name="eight" unicode="8" 
d="M278 401q-28 -1 -55 6t-48 23t-34 41t-13 60q0 30 12.5 53t33.5 38t48 23t56 8q32 0 59 -8t47 -23t31.5 -38t11.5 -53q0 -34 -12.5 -59t-33 -41t-47.5 -23.5t-56 -6.5zM490 531q0 45 -18.5 78t-49 54.5t-68.5 32t-77 10.5t-77 -10.5t-68 -32t-48.5 -54.5t-18.5 -78
q0 -58 29.5 -97.5t84.5 -56.5v-2q-66 -12 -103 -61t-39 -118q0 -53 19 -92.5t52 -65.5t77 -39t93 -13q50 0 93.5 13t76.5 39t52 65.5t19 92.5q0 72 -37 118.5t-106 60.5v2q54 16 84 56.5t30 97.5zM278 38q-37 0 -69.5 10t-56.5 29.5t-38 49.5t-14 69q0 38 14.5 67t38.5 48.5
t56.5 28.5t68.5 8q35 1 67.5 -8.5t57 -29t39 -48t14.5 -66.5q0 -40 -14 -70t-38 -49.5t-56.5 -29t-69.5 -9.5z" />
    <glyph glyph-name="nine" unicode="9" 
d="M114 168h-63q11 -93 66 -137.5t149 -44.5q57 0 98 20t68.5 51.5t44 71t25.5 78t11.5 72.5t2.5 55q0 102 -14.5 173t-44.5 115.5t-76 64t-110 19.5q-52 0 -95.5 -18t-75 -49.5t-49 -75t-17.5 -94.5t16.5 -94t46.5 -74t73 -48.5t95 -17.5q60 0 110.5 32t75.5 84h2
q0 -48 -7 -102.5t-28 -101.5t-58.5 -78t-99.5 -31q-61 0 -99.5 36t-46.5 94zM266 288q-40 0 -71.5 14.5t-53 39.5t-33 59t-11.5 72q0 36 12 69t34.5 57.5t53.5 39t68 14.5q46 0 79 -14t54.5 -38.5t31.5 -57t10 -70.5q0 -39 -11.5 -72.5t-34 -58.5t-55 -39.5t-73.5 -14.5z
" />
    <glyph glyph-name="colon" unicode=":" horiz-adv-x="278" 
d="M97 0h84v106h-84v-106zM97 394h84v106h-84v-106z" />
    <glyph glyph-name="semicolon" unicode=";" horiz-adv-x="278" 
d="M97 394h84v106h-84v-106zM181 106h-84v-106h42q1 -11 -1.5 -25.5t-8.5 -28t-15 -24.5t-21 -15v-43q22 6 38.5 20t27.5 32.5t16.5 40t5.5 43.5v106z" />
    <glyph glyph-name="less" unicode="&#x3c;" horiz-adv-x="600" 
d="M554 -7v54l-446 206l446 206v55l-508 -234v-54z" />
    <glyph glyph-name="equal" unicode="=" horiz-adv-x="600" 
d="M552 128v53h-503v-53h503zM552 325v53h-503v-53h503z" />
    <glyph glyph-name="greater" unicode="&#x3e;" horiz-adv-x="600" 
d="M492 253l-446 -206v-54l508 233v54l-508 234v-55z" />
    <glyph glyph-name="question" unicode="?" horiz-adv-x="537" 
d="M231 106v-106h84v106h-84zM54 494h63q-1 39 9 72t30 57.5t51 38.5t71 14q29 0 55 -10t45.5 -27.5t31 -42.5t11.5 -55q0 -39 -18.5 -71t-46.5 -58q-32 -29 -54.5 -52t-36 -48t-19.5 -56t-5 -77h63q1 46 4 70.5t12 41.5t27.5 34.5t49.5 48.5q38 36 62.5 75t24.5 95
q0 44 -16 78t-44 58t-64.5 36.5t-78.5 12.5q-54 0 -96 -17t-71.5 -47.5t-44.5 -74t-15 -96.5z" />
    <glyph glyph-name="at" unicode="@" horiz-adv-x="800" 
d="M518 256l96 288h-53l-25 -65q-17 45 -45 64.5t-61 19.5q-53 0 -97 -25.5t-75 -67t-48 -93t-17 -103.5q0 -30 9 -56t26 -46t41.5 -31.5t55.5 -11.5q38 0 71 21t56 45h2q3 -33 22 -50t45 -17q42 0 83.5 22.5t74.5 62t53.5 92.5t20.5 113q0 69 -26 126t-71.5 98.5t-107.5 64
t-134 22.5q-76 0 -143 -28.5t-117 -78t-78.5 -117t-28.5 -145.5q0 -79 27.5 -147.5t77 -119t117.5 -79t149 -28.5q47 0 92.5 12t86 35t74 56t56.5 74h-51q-22 -31 -51 -55.5t-63 -41.5t-70.5 -26.5t-73.5 -9.5q-68 0 -126.5 25t-101 68.5t-66.5 102.5t-24 127q0 69 23 129.5
t65 105t100 70.5t128 26q58 0 109.5 -18t90.5 -51.5t61.5 -82.5t22.5 -111q0 -42 -14 -86t-37 -80t-54 -59t-64 -23q-12 0 -17.5 7t-6 18.5t2.5 26.5t8 31zM426 510q15 0 29 -8t25 -21t18 -29.5t7 -34.5q0 -33 -13 -74t-35.5 -76.5t-52.5 -60t-65 -24.5q-36 0 -59.5 26
t-23.5 71q0 35 12 75.5t34.5 75t54 57.5t69.5 23z" />
    <glyph glyph-name="A" unicode="A" horiz-adv-x="630" 
d="M173 280l143 366l138 -366h-281zM281 714l-287 -714h72l86 222h325l87 -222h73l-280 714h-76z" />
    <glyph glyph-name="B" unicode="B" horiz-adv-x="667" 
d="M140 401v255h234q161 0 161 -134q0 -25 -10 -47t-30 -38.5t-50 -26t-71 -9.5h-234zM72 714v-714h302q58 0 99.5 10.5t70 27t45.5 38.5t26 44.5t12 44t3 38.5q0 70 -41 117.5t-110 56.5v2q28 6 50.5 21t39 36.5t25.5 48t9 54.5q0 50 -19 83.5t-50.5 54t-73 29t-86.5 8.5
h-302zM140 58v285h234q91 0 139.5 -34.5t48.5 -103.5q0 -43 -15 -71.5t-41 -45.5t-60 -23.5t-72 -6.5h-234z" />
    <glyph glyph-name="C" unicode="C" horiz-adv-x="704" 
d="M594 498h68q-7 56 -33.5 99t-66 72.5t-88 44.5t-99.5 15q-84 0 -147.5 -30.5t-105.5 -82t-63 -118.5t-21 -141t21 -141t63 -118t105.5 -81.5t147.5 -30.5q63 0 114.5 20t89.5 57t62 90t31 119h-68q-5 -48 -23 -89.5t-47 -72.5t-69 -49t-90 -18q-71 0 -122 27t-83.5 71.5
t-48 101t-15.5 114.5q0 59 15.5 115t48 100.5t83.5 71.5t122 27q39 0 74.5 -11.5t65 -33.5t50 -54.5t29.5 -73.5z" />
    <glyph glyph-name="D" unicode="D" horiz-adv-x="685" 
d="M72 714v-714h247q163 4 245.5 91.5t82.5 265.5t-82.5 265.5t-245.5 91.5h-247zM140 58v598h145q77 0 132.5 -16.5t91.5 -52.5t53 -93t17 -137t-17 -137t-53 -93t-91.5 -52.5t-132.5 -16.5h-145z" />
    <glyph glyph-name="E" unicode="E" horiz-adv-x="593" 
d="M72 714v-714h498v58h-430v282h398v58h-398v258h425v58h-493z" />
    <glyph glyph-name="F" unicode="F" horiz-adv-x="537" 
d="M72 714v-714h68v340h342v58h-342v258h385v58h-453z" />
    <glyph glyph-name="G" unicode="G" horiz-adv-x="741" 
d="M682 0v363h-303v-58h243q1 -57 -15 -105t-48 -83t-78.5 -54.5t-105.5 -19.5q-71 0 -122 27t-83.5 71.5t-48 101t-15.5 114.5q0 59 15.5 115t48 100.5t83.5 71.5t122 27q51 0 92 -16.5t70.5 -42.5t47 -57.5t20.5 -62.5h68q-10 59 -37 103t-66 74t-89 45t-106 15
q-84 0 -147.5 -30.5t-105.5 -82t-63 -118.5t-21 -141t21 -141t63 -118t105.5 -81.5t147.5 -30.5q39 0 75.5 8t68.5 25.5t58.5 45t44.5 65.5h2l9 -130h49z" />
    <glyph glyph-name="H" unicode="H" horiz-adv-x="704" 
d="M72 714v-714h68v346h424v-346h68v714h-68v-310h-424v310h-68z" />
    <glyph glyph-name="I" unicode="I" horiz-adv-x="222" 
d="M77 714v-714h68v714h-68z" />
    <glyph glyph-name="J" unicode="J" horiz-adv-x="500" 
d="M360 714v-486q0 -49 -6 -84t-21 -57.5t-41 -33t-66 -10.5q-53 0 -80.5 20.5t-39.5 49.5t-14 61t-3 55h-68q0 -47 8 -91t30 -77.5t61 -54t100 -20.5q58 0 97.5 13t64 39t35.5 66t11 95v515h-68z" />
    <glyph glyph-name="K" unicode="K" horiz-adv-x="648" 
d="M72 714v-714h68v245l137 127l297 -372h88l-334 419l319 295h-92l-415 -384v384h-68z" />
    <glyph glyph-name="L" unicode="L" horiz-adv-x="537" 
d="M72 714v-714h468v58h-400v656h-68z" />
    <glyph glyph-name="M" unicode="M" horiz-adv-x="821" 
d="M170 714l237 -626l246 626h100v-714h-68v617h-2l-244 -617h-64l-235 617h-2v-617h-68v714h100z" />
    <glyph glyph-name="N" unicode="N" horiz-adv-x="704" 
d="M71 714v-714h68v604h2l416 -604h76v714h-68v-604h-2l-416 604h-76z" />
    <glyph glyph-name="O" unicode="O" horiz-adv-x="741" 
d="M102 357q0 59 15.5 115t48 100.5t83.5 71.5t122 27t121.5 -27t83 -71.5t48 -100.5t15.5 -115q0 -58 -15.5 -114.5t-48 -101t-83 -71.5t-121.5 -27t-122 27t-83.5 71.5t-48 101t-15.5 114.5zM34 357q0 -74 21 -141t63 -118t105.5 -81.5t147.5 -30.5t147 30.5t105 81.5
t63 118t21 141t-21 141t-63 118.5t-105 82t-147 30.5t-147.5 -30.5t-105.5 -82t-63 -118.5t-21 -141z" />
    <glyph glyph-name="P" unicode="P" horiz-adv-x="630" 
d="M140 364v292h234q71 0 115 -36t44 -110t-44 -110t-115 -36h-234zM72 714v-714h68v306h249q48 0 87 13.5t67 40t43 64.5t15 86t-15 86t-43 64.5t-67 40t-87 13.5h-317z" />
    <glyph glyph-name="Q" unicode="Q" horiz-adv-x="741" 
d="M667 -45l34 42l-102 77q54 52 81 125.5t27 157.5q0 74 -21 141t-63 118.5t-105 82t-147 30.5t-147.5 -30.5t-105.5 -82t-63 -118.5t-21 -141t21 -141t63 -118t105.5 -81.5t147.5 -30.5q112 0 185 52zM548 113l-104 79l-35 -43l94 -71q-56 -35 -132 -35q-71 0 -122 27
t-83.5 71.5t-48 101t-15.5 114.5q0 59 15.5 115t48 100.5t83.5 71.5t122 27t121.5 -27t83 -71.5t48 -100.5t15.5 -115q0 -69 -21.5 -134t-69.5 -110z" />
    <glyph glyph-name="R" unicode="R" horiz-adv-x="667" 
d="M140 375v281h254q78 0 116 -38t38 -104q0 -33 -12.5 -58.5t-33.5 -43.5t-49 -27.5t-59 -9.5h-254zM72 714v-714h68v317h258q48 2 75.5 -16t42 -47.5t19 -67t6.5 -75.5q1 -11 2 -26t2.5 -30.5t5 -30t9.5 -24.5h75q-11 13 -17.5 36.5t-9.5 50t-4 52.5t-2 44
q-2 32 -8.5 59.5t-21 48.5t-37.5 34.5t-58 18.5v2q69 14 104 64t35 118q0 48 -17.5 83.5t-47 58t-69 33.5t-83.5 11h-327z" />
    <glyph glyph-name="S" unicode="S" horiz-adv-x="630" 
d="M104 235h-68q-3 -66 17.5 -113t58.5 -77t92 -44.5t117 -14.5t108 11.5t75.5 30t48 41.5t27 45.5t12 42.5t2.5 32q0 44 -14.5 75t-40 52.5t-59 36t-71.5 24.5l-174 43q-22 5 -41.5 13t-34.5 21t-23.5 31.5t-8.5 43.5q0 40 15 67t39.5 43.5t57 24t67.5 7.5q38 0 72.5 -10.5
t61 -31t43 -51t18.5 -71.5h68q0 55 -21.5 96.5t-57.5 69.5t-84 42t-101 14q-75 0 -123 -21.5t-75.5 -52.5t-37.5 -66t-10 -61q0 -42 13.5 -71t35.5 -49t51.5 -32t60.5 -20l159 -39q25 -6 51 -15.5t47.5 -24.5t35 -37t13.5 -52q0 -39 -19 -66.5t-47.5 -45t-61.5 -25.5t-61 -8
q-49 0 -92 9.5t-74.5 31.5t-49.5 59t-17 92z" />
    <glyph glyph-name="T" unicode="T" 
d="M-4 714v-58h248v-656h68v656h249v58h-565z" />
    <glyph glyph-name="U" unicode="U" horiz-adv-x="685" 
d="M65 714v-457q0 -55 15.5 -104.5t49 -86.5t86 -58.5t126.5 -21.5q75 0 127.5 21.5t86 58.5t49 86.5t15.5 104.5v457h-68v-442q0 -62 -14 -105.5t-41 -71t-66 -40t-89 -12.5q-49 0 -88 12.5t-66 40t-41 71t-14 105.5v442h-68z" />
    <glyph glyph-name="V" unicode="V" horiz-adv-x="593" 
d="M-6 714l264 -714h79l265 714h-72l-230 -639h-2l-232 639h-72z" />
    <glyph glyph-name="W" unicode="W" horiz-adv-x="907" 
d="M0 714l198 -714h74l180 639h2l181 -639h72l197 714h-68l-163 -625h-2l-175 625h-85l-174 -625h-2l-162 625h-73z" />
    <glyph glyph-name="X" unicode="X" horiz-adv-x="574" 
d="M3 714l242 -346l-256 -368h76l220 315l217 -315h82l-258 366l244 348h-76l-209 -299l-202 299h-80z" />
    <glyph glyph-name="Y" unicode="Y" horiz-adv-x="611" 
d="M271 294v-294h68v294l282 420h-81l-234 -362l-235 362h-80z" />
    <glyph glyph-name="Z" unicode="Z" horiz-adv-x="574" 
d="M37 714v-58h438l-470 -596v-60h556v58h-480l470 596v60h-514z" />
    <glyph glyph-name="bracketleft" unicode="[" horiz-adv-x="241" 
d="M76 -190h161v53h-98v813h98v53h-161v-919z" />
    <glyph glyph-name="backslash" unicode="\" horiz-adv-x="333" 
d="M292 -14h54l-308 743h-50z" />
    <glyph glyph-name="bracketright" unicode="]" horiz-adv-x="241" 
d="M165 729h-161v-53h98v-813h-98v-53h161v919z" />
    <glyph glyph-name="asciicircum" unicode="^" horiz-adv-x="600" 
d="M44 238h58l197 390l200 -390h57l-230 453h-52z" />
    <glyph glyph-name="underscore" unicode="_" horiz-adv-x="500" 
d="M0 -124h500v50h-500v-50z" />
    <glyph glyph-name="grave" unicode="`" horiz-adv-x="185" 
d="M-30 729l131 -141h51l-105 141h-77z" />
    <glyph glyph-name="a" unicode="a" horiz-adv-x="519" 
d="M54 358h63q2 63 40 91.5t98 28.5q28 0 52.5 -4.5t43 -16.5t29 -32.5t10.5 -52.5q0 -21 -5.5 -34t-15.5 -20.5t-25 -10.5t-35 -5q-51 -6 -100.5 -12.5t-89 -22.5t-63.5 -46.5t-24 -84.5q0 -39 13.5 -67.5t37 -47t55 -27t67.5 -8.5q38 0 65.5 7t49 20t39 32.5t34.5 44.5h2
q0 -20 2.5 -36.5t10.5 -28.5t22.5 -18.5t38.5 -6.5q13 0 21.5 1t19.5 3v53q-9 -4 -20 -4q-37 0 -37 38v274q0 52 -17 84.5t-44 50.5t-61 24.5t-68 6.5q-45 0 -82 -10t-64.5 -31t-43.5 -54t-19 -78zM390 282v-82q0 -38 -14.5 -68t-39 -51t-57.5 -32t-69 -11q-22 0 -43 7
t-37 20.5t-25.5 32t-9.5 42.5q0 38 22.5 58.5t57.5 31.5t77.5 16.5t82.5 12.5q13 2 30 7t23 16h2z" />
    <glyph glyph-name="b" unicode="b" horiz-adv-x="574" 
d="M60 714v-714h58v98h2q22 -54 71.5 -83t112.5 -29q59 0 102.5 21.5t72.5 59t43 87t14 104.5t-14 104.5t-43 87t-72.5 59.5t-102.5 22q-28 0 -56 -7t-52 -21.5t-42.5 -35.5t-28.5 -49h-2v296h-63zM473 258q0 -40 -9.5 -79.5t-30 -70.5t-52.5 -50.5t-77 -19.5
q-50 0 -84.5 19.5t-56 50.5t-31 70.5t-9.5 79.5t9.5 79.5t31 70.5t56 50.5t84.5 19.5q45 0 77 -19.5t52.5 -50.5t30 -70.5t9.5 -79.5z" />
    <glyph glyph-name="c" unicode="c" horiz-adv-x="519" 
d="M424 354h63q-11 89 -68.5 133t-140.5 44q-59 0 -104.5 -22t-76.5 -59t-47 -86.5t-16 -105.5t16 -105.5t47 -86.5t76.5 -58.5t104.5 -21.5q88 0 144 52.5t69 146.5h-63q-3 -32 -16 -59t-33 -46.5t-46 -30.5t-55 -11q-45 0 -79 19t-56.5 50t-34 70.5t-11.5 80.5t11.5 80.5
t34 70.5t56.5 50t79 19q63 0 98 -33t48 -91z" />
    <glyph glyph-name="d" unicode="d" horiz-adv-x="574" 
d="M514 0v714h-63v-296h-2q-10 28 -28.5 49t-42.5 35.5t-51.5 21.5t-56.5 7q-59 0 -102.5 -22t-72.5 -59.5t-43 -87t-14 -104.5t14 -104.5t43 -87t72.5 -59t102.5 -21.5q28 0 56.5 8t53.5 22.5t44.5 35.5t29.5 46h2v-98h58zM101 258q0 40 9.5 79.5t30 70.5t52.5 50.5
t77 19.5q50 0 84.5 -19.5t56 -50.5t31 -70.5t9.5 -79.5t-9.5 -79.5t-31 -70.5t-56 -50.5t-84.5 -19.5q-45 0 -77 19.5t-52.5 50.5t-30 70.5t-9.5 79.5z" />
    <glyph glyph-name="e" unicode="e" horiz-adv-x="519" 
d="M431 294h-334q4 35 16.5 68.5t33.5 59t51 41t69 15.5q38 0 68 -15.5t51 -41t32.5 -58.5t12.5 -69zM97 241h397q2 54 -10 106.5t-39.5 93t-71.5 65.5t-106 25q-61 0 -105.5 -23.5t-72.5 -62t-41.5 -87.5t-13.5 -100q0 -55 13.5 -104.5t41.5 -87t72.5 -59t105.5 -21.5
q98 0 151.5 48t73.5 136h-63q-15 -60 -54 -96t-108 -36q-45 0 -77 19t-53 48t-30.5 65.5t-9.5 70.5z" />
    <glyph glyph-name="f" unicode="f" horiz-adv-x="259" 
d="M259 463v53h-102v45q0 21 1 39t7.5 31.5t20.5 21.5t40 8q11 0 22 -1.5t24 -3.5v54q-15 2 -27 3t-26 1q-38 0 -62.5 -11t-38.5 -31t-19 -48t-5 -61v-47h-88v-53h88v-463h63v463h102z" />
    <glyph glyph-name="g" unicode="g" 
d="M496 42v474h-63v-89h-2q-9 21 -25.5 40t-37.5 33.5t-46.5 22.5t-54.5 8q-56 0 -99.5 -20.5t-73 -56t-45 -83t-15.5 -100.5q0 -55 13 -103.5t41.5 -84.5t72.5 -56.5t106 -20.5q57 0 99.5 29t64.5 77h2v-70q0 -94 -39 -144t-127 -50q-26 0 -51 5.5t-45.5 17.5t-35 31.5
t-19.5 48.5h-63q3 -41 22.5 -70.5t49 -48.5t66.5 -28t76 -9q63 0 106.5 17t70.5 49t39.5 78t12.5 103zM267 59q-44 0 -76 17.5t-53 46t-31 65.5t-10 76q0 40 9.5 78.5t30.5 68.5t53 48.5t77 18.5t76.5 -19t51.5 -50t29 -69t9 -76q0 -39 -10.5 -76t-31.5 -65.5t-52 -46
t-72 -17.5z" />
    <glyph glyph-name="h" unicode="h" horiz-adv-x="537" 
d="M59 714v-714h63v301q1 38 12.5 70.5t32 56t50 37t67.5 13.5t63.5 -12t40.5 -33t21 -49.5t6 -61.5v-322h63v332q0 46 -9 83t-31 62.5t-58.5 39.5t-90.5 14q-55 0 -101 -28.5t-64 -75.5h-2v287h-63z" />
    <glyph glyph-name="i" unicode="i" horiz-adv-x="185" 
d="M61 714v-101h63v101h-63zM61 516v-516h63v516h-63z" />
    <glyph glyph-name="j" unicode="j" horiz-adv-x="185" 
d="M61 714v-101h63v101h-63zM61 516v-578q0 -32 -10 -53.5t-47 -21.5q-7 -1 -16 -0.5t-17 1.5v-52q11 0 21.5 -1t21.5 -1q33 0 54.5 11.5t34 31t17 45.5t4.5 55v563h-63z" />
    <glyph glyph-name="k" unicode="k" horiz-adv-x="500" 
d="M60 714v-714h63v196l102 85l204 -281h79l-235 325l220 191h-84l-286 -250v448h-63z" />
    <glyph glyph-name="l" unicode="l" horiz-adv-x="185" 
d="M61 714v-714h63v714h-63z" />
    <glyph glyph-name="m" unicode="m" horiz-adv-x="833" 
d="M60 516v-516h63v288q0 41 9 75.5t27.5 60t48 40t69.5 14.5q30 0 51 -10t33.5 -27.5t18 -41t5.5 -49.5v-350h63v292q0 36 6.5 69.5t22.5 59.5t43 41.5t68 15.5q68 0 95 -33.5t27 -97.5v-347h63v350q0 181 -171 181q-51 0 -96 -25t-68 -76q-14 51 -55.5 76t-92.5 25
q-63 0 -103.5 -27t-65.5 -75h-3v87h-58z" />
    <glyph glyph-name="n" unicode="n" horiz-adv-x="537" 
d="M59 516v-516h63v301q1 38 12.5 70.5t32 56t50 37t67.5 13.5t63.5 -12t40.5 -33t21 -49.5t6 -61.5v-322h63v332q0 46 -9 83t-31 62.5t-58.5 39.5t-90.5 14q-55 0 -101 -28.5t-64 -75.5h-2v89h-63z" />
    <glyph glyph-name="o" unicode="o" 
d="M278 478q45 0 79 -19t56.5 -50t34 -70.5t11.5 -80.5t-11.5 -80.5t-34 -70.5t-56.5 -50t-79 -19t-79 19t-56.5 50t-34 70.5t-11.5 80.5t11.5 80.5t34 70.5t56.5 50t79 19zM278 531q-59 0 -104.5 -22t-76.5 -59t-47 -86.5t-16 -105.5t16 -105.5t47 -86.5t76.5 -58.5
t104.5 -21.5t104.5 21.5t76.5 58.5t47 86.5t16 105.5t-16 105.5t-47 86.5t-76.5 59t-104.5 22z" />
    <glyph glyph-name="p" unicode="p" horiz-adv-x="574" 
d="M60 516v-706h63v288h2q10 -28 28.5 -49t42.5 -35t52 -21t56 -7q59 0 102.5 21.5t72.5 59t43 87t14 104.5t-14 104.5t-43 87t-72.5 59.5t-102.5 22q-63 0 -112.5 -29.5t-71.5 -83.5h-2v98h-58zM473 258q0 -40 -9.5 -79.5t-30 -70.5t-52.5 -50.5t-77 -19.5
q-50 0 -84.5 19.5t-56 50.5t-31 70.5t-9.5 79.5q0 44 8.5 84t29.5 70t56 48t87 18q45 0 77 -19.5t52.5 -50.5t30 -70.5t9.5 -79.5z" />
    <glyph glyph-name="q" unicode="q" horiz-adv-x="574" 
d="M514 -190v706h-58v-98h-2q-10 26 -29.5 46.5t-44.5 35.5t-53.5 23t-56.5 8q-59 0 -102.5 -22t-72.5 -59.5t-43 -87t-14 -104.5t14 -104.5t43 -87t72.5 -59t102.5 -21.5q29 0 56.5 7t51.5 21t42.5 35t28.5 49h2v-288h63zM101 258q0 40 9.5 79.5t30 70.5t52.5 50.5t77 19.5
q50 0 84.5 -19.5t56 -50.5t31 -70.5t9.5 -79.5t-9.5 -79.5t-31 -70.5t-56 -50.5t-84.5 -19.5q-45 0 -77 19.5t-52.5 50.5t-30 70.5t-9.5 79.5z" />
    <glyph glyph-name="r" unicode="r" horiz-adv-x="315" 
d="M60 516v-516h63v275q0 41 14 75.5t39.5 59.5t60.5 38.5t78 11.5v63q-70 3 -120.5 -31t-74.5 -97h-2v121h-58z" />
    <glyph glyph-name="s" unicode="s" horiz-adv-x="481" 
d="M369 365h63q-2 42 -17 73t-40.5 52t-59 31t-72.5 10q-34 0 -68.5 -8t-62.5 -25t-45.5 -45t-17.5 -67q0 -33 11 -55.5t30.5 -38t45.5 -26t57 -18.5l81 -18q21 -5 41.5 -12t36.5 -17.5t25.5 -26t9.5 -38.5q0 -27 -13.5 -45.5t-34.5 -30.5t-45.5 -17t-47.5 -5
q-63 0 -105.5 32.5t-46.5 96.5h-63q8 -95 64.5 -138t147.5 -43q36 0 73 8t66.5 26.5t48.5 48t19 71.5q0 34 -13 59t-33.5 42t-47 27.5t-53.5 14.5l-84 19q-16 4 -35 10.5t-35 16.5t-26.5 24.5t-10.5 35.5q0 25 11 42t29 27.5t39.5 15t42.5 4.5q27 0 51 -6.5t42.5 -20.5
t29.5 -35.5t12 -50.5z" />
    <glyph glyph-name="t" unicode="t" horiz-adv-x="296" 
d="M160 516v155h-63v-155h-90v-53h90v-353q-1 -66 24 -90.5t88 -24.5q14 0 28 1t28 1v53q-27 -3 -54 -3q-34 2 -42.5 19.5t-8.5 48.5v348h105v53h-105z" />
    <glyph glyph-name="u" unicode="u" horiz-adv-x="537" 
d="M478 0v516h-63v-271q0 -39 -9 -76.5t-28 -66.5t-48 -46.5t-70 -17.5q-75 0 -105.5 36t-32.5 106v336h-63v-335q0 -46 10 -82t31.5 -61t56 -38.5t83.5 -13.5q58 0 105.5 27.5t72.5 79.5h2v-93h58z" />
    <glyph glyph-name="v" unicode="v" horiz-adv-x="463" 
d="M2 516l199 -516h67l193 516h-65l-160 -453h-2l-162 453h-70z" />
    <glyph glyph-name="w" unicode="w" horiz-adv-x="741" 
d="M8 516l166 -516h69l126 434h2l127 -434h69l166 516h-67l-132 -442h-2l-126 442h-71l-126 -442h-2l-132 442h-67z" />
    <glyph glyph-name="x" unicode="x" horiz-adv-x="481" 
d="M201 268l-200 -268h78l159 217l162 -217h80l-201 269l186 247h-79l-144 -196l-147 196h-79z" />
    <glyph glyph-name="y" unicode="y" horiz-adv-x="463" 
d="M2 516l206 -514l-22 -58q-8 -18 -15 -33t-17 -25.5t-23.5 -16.5t-34.5 -6q-11 0 -21.5 1.5t-21.5 3.5v-53q8 -3 18.5 -3.5t29.5 -1.5q30 0 49.5 5.5t34 18t26.5 34t26 54.5l224 594h-63l-159 -440l-170 440h-67z" />
    <glyph glyph-name="z" unicode="z" horiz-adv-x="463" 
d="M91 53l341 418v45h-394v-53h314l-337 -412v-51h431v53h-355z" />
    <glyph glyph-name="braceleft" unicode="{" horiz-adv-x="333" 
d="M243 -190h50v53h-20q-15 0 -25.5 8.5t-17 22.5t-9.5 33t-3 39v140q0 41 -9 70.5t-21 49t-23.5 29.5t-16.5 13v2q5 3 16.5 13t23.5 29.5t21 49t9 70.5v141q0 20 3 38.5t9.5 33t17 23t25.5 8.5h20v53h-50q-42 0 -65 -34t-23 -91v-149q0 -30 -3 -59t-11 -51.5t-22 -36
t-36 -13.5v-53q22 0 36 -13.5t22 -36t11 -51.5t3 -59v-147q0 -57 23 -91t65 -34z" />
    <glyph glyph-name="bar" unicode="|" horiz-adv-x="222" 
d="M85 786v-999h53v999h-53z" />
    <glyph glyph-name="braceright" unicode="}" horiz-adv-x="333" 
d="M90 729h-50v-53h20q15 0 25.5 -8.5t17 -23t9.5 -33t3 -38.5v-141q0 -41 9 -70.5t21 -49t23.5 -29.5t16.5 -13v-2q-5 -3 -16.5 -13t-23.5 -29.5t-21 -49t-9 -70.5v-140q0 -20 -3 -39t-9.5 -33t-17 -22.5t-25.5 -8.5h-20v-53h50q42 0 65 34t23 91v148q0 30 3 59t11 51.5
t22 36t36 13.5v53q-22 0 -36 13.5t-22 36t-11 51.5t-3 59v148q0 57 -23 91t-65 34z" />
    <glyph glyph-name="asciitilde" unicode="~" horiz-adv-x="600" 
d="M531 279l-36 36q-17 -26 -37.5 -47.5t-50.5 -21.5q-19 0 -44 10t-54 23q-28 12 -57.5 22t-57.5 10q-25 0 -44.5 -7.5t-35 -19.5t-26.5 -27.5t-19 -31.5l36 -36q12 26 31.5 47.5t52.5 21.5q29 0 55 -10t52 -22q26 -13 53 -23t57 -10q23 0 41.5 7.5t33.5 19.5t27 27.5
t23 31.5z" />
    <glyph glyph-name="Adieresis" unicode="&#xc4;" horiz-adv-x="630" 
d="M193 788h68v101h-68v-101zM370 788h68v101h-68v-101zM173 280l143 366l138 -366h-281zM281 714l-287 -714h72l86 222h325l87 -222h73l-280 714h-76z" />
    <glyph glyph-name="Aring" unicode="&#xc5;" horiz-adv-x="630" 
d="M-6 0l287 684h76l280 -684h-73l-84 212h-329l-85 -212h-72zM174 270h283l-141 355zM247 828q0 29 19.5 48.5t48.5 19.5t48.5 -19.5t19.5 -48.5t-19.5 -48.5t-48.5 -19.5t-48.5 19.5t-19.5 48.5zM209 828q0 -22 8 -41.5t22.5 -34t34 -23t41.5 -8.5t41.5 8.5t34 23t23 34
t8.5 41.5t-8.5 41.5t-23 34t-34 23t-41.5 8.5t-41.5 -8.5t-34 -23t-22.5 -34t-8 -41.5z" />
    <glyph glyph-name="Ccedilla" unicode="&#xc7;" horiz-adv-x="704" 
d="M672 272h-68q-5 -48 -23 -89.5t-47 -72.5t-69 -49t-90 -18q-71 0 -122 27t-83.5 71.5t-48 101t-15.5 114.5q0 59 15.5 115t48 100.5t83.5 71.5t122 27q39 0 74.5 -11.5t65 -33.5t50 -54.5t29.5 -73.5h68q-7 56 -33.5 99t-66 72.5t-88 44.5t-99.5 15q-84 0 -147.5 -30.5
t-105.5 -82t-63 -118.5t-21 -141q0 -69 19 -133.5t56.5 -114.5t94 -82.5t132.5 -38.5l-51 -66l16 -15q18 8 51 8q17 0 30 -10t13 -28q0 -23 -16 -33t-37 -10q-22 0 -44 4.5t-35 9.5l-14 -32q22 -11 46 -16t48 -5q19 0 38.5 5t35.5 15.5t26 26.5t10 39t-11.5 37t-29 20.5
t-37.5 7t-38 -2.5l33 43h1q63 0 114.5 20t89.5 57t62 90t31 119z" />
    <glyph glyph-name="Eacute" unicode="&#xc9;" horiz-adv-x="593" 
d="M288 771l132 141h-78l-105 -141h51zM72 714v-714h498v58h-430v282h398v58h-398v258h425v58h-493z" />
    <glyph glyph-name="Ntilde" unicode="&#xd1;" horiz-adv-x="704" 
d="M509 891h-38q-6 -20 -17.5 -34t-34.5 -14q-14 0 -28.5 7t-31 15t-35.5 15t-40 7q-19 0 -35 -8.5t-27 -22t-18 -30.5t-9 -35h39q0 25 15 38t38 13q13 0 28 -7t32 -16t36 -16t39 -7t35 8.5t25.5 22t17 30.5t9.5 34zM71 714v-714h68v604h2l416 -604h76v714h-68v-604h-2
l-416 604h-76z" />
    <glyph glyph-name="Odieresis" unicode="&#xd6;" horiz-adv-x="741" 
d="M248 788h68v101h-68v-101zM425 788h68v101h-68v-101zM102 357q0 59 15.5 115t48 100.5t83.5 71.5t122 27t121.5 -27t83 -71.5t48 -100.5t15.5 -115q0 -58 -15.5 -114.5t-48 -101t-83 -71.5t-121.5 -27t-122 27t-83.5 71.5t-48 101t-15.5 114.5zM34 357q0 -74 21 -141
t63 -118t105.5 -81.5t147.5 -30.5t147 30.5t105 81.5t63 118t21 141t-21 141t-63 118.5t-105 82t-147 30.5t-147.5 -30.5t-105.5 -82t-63 -118.5t-21 -141z" />
    <glyph glyph-name="Udieresis" unicode="&#xdc;" horiz-adv-x="685" 
d="M220 788h68v101h-68v-101zM397 788h68v101h-68v-101zM65 714v-457q0 -55 15.5 -104.5t49 -86.5t86 -58.5t126.5 -21.5q75 0 127.5 21.5t86 58.5t49 86.5t15.5 104.5v457h-68v-442q0 -62 -14 -105.5t-41 -71t-66 -40t-89 -12.5q-49 0 -88 12.5t-66 40t-41 71t-14 105.5
v442h-68z" />
    <glyph glyph-name="aacute" unicode="&#xe1;" horiz-adv-x="519" 
d="M251 588l132 141h-78l-105 -141h51zM54 358h63q2 63 40 91.5t98 28.5q28 0 52.5 -4.5t43 -16.5t29 -32.5t10.5 -52.5q0 -21 -5.5 -34t-15.5 -20.5t-25 -10.5t-35 -5q-51 -6 -100.5 -12.5t-89 -22.5t-63.5 -46.5t-24 -84.5q0 -39 13.5 -67.5t37 -47t55 -27t67.5 -8.5
q38 0 65.5 7t49 20t39 32.5t34.5 44.5h2q0 -20 2.5 -36.5t10.5 -28.5t22.5 -18.5t38.5 -6.5q13 0 21.5 1t19.5 3v53q-9 -4 -20 -4q-37 0 -37 38v274q0 52 -17 84.5t-44 50.5t-61 24.5t-68 6.5q-45 0 -82 -10t-64.5 -31t-43.5 -54t-19 -78zM390 282v-82q0 -38 -14.5 -68
t-39 -51t-57.5 -32t-69 -11q-22 0 -43 7t-37 20.5t-25.5 32t-9.5 42.5q0 38 22.5 58.5t57.5 31.5t77.5 16.5t82.5 12.5q13 2 30 7t23 16h2z" />
    <glyph glyph-name="agrave" unicode="&#xe0;" horiz-adv-x="519" 
d="M136 729l132 -141h51l-105 141h-78zM54 358h63q2 63 40 91.5t98 28.5q28 0 52.5 -4.5t43 -16.5t29 -32.5t10.5 -52.5q0 -21 -5.5 -34t-15.5 -20.5t-25 -10.5t-35 -5q-51 -6 -100.5 -12.5t-89 -22.5t-63.5 -46.5t-24 -84.5q0 -39 13.5 -67.5t37 -47t55 -27t67.5 -8.5
q38 0 65.5 7t49 20t39 32.5t34.5 44.5h2q0 -20 2.5 -36.5t10.5 -28.5t22.5 -18.5t38.5 -6.5q13 0 21.5 1t19.5 3v53q-9 -4 -20 -4q-37 0 -37 38v274q0 52 -17 84.5t-44 50.5t-61 24.5t-68 6.5q-45 0 -82 -10t-64.5 -31t-43.5 -54t-19 -78zM390 282v-82q0 -38 -14.5 -68
t-39 -51t-57.5 -32t-69 -11q-22 0 -43 7t-37 20.5t-25.5 32t-9.5 42.5q0 38 22.5 58.5t57.5 31.5t77.5 16.5t82.5 12.5q13 2 30 7t23 16h2z" />
    <glyph glyph-name="acircumflex" unicode="&#xe2;" horiz-adv-x="519" 
d="M408 588l-114 141h-69l-114 -141h58l88 102l86 -102h65zM54 358h63q2 63 40 91.5t98 28.5q28 0 52.5 -4.5t43 -16.5t29 -32.5t10.5 -52.5q0 -21 -5.5 -34t-15.5 -20.5t-25 -10.5t-35 -5q-51 -6 -100.5 -12.5t-89 -22.5t-63.5 -46.5t-24 -84.5q0 -39 13.5 -67.5t37 -47
t55 -27t67.5 -8.5q38 0 65.5 7t49 20t39 32.5t34.5 44.5h2q0 -20 2.5 -36.5t10.5 -28.5t22.5 -18.5t38.5 -6.5q13 0 21.5 1t19.5 3v53q-9 -4 -20 -4q-37 0 -37 38v274q0 52 -17 84.5t-44 50.5t-61 24.5t-68 6.5q-45 0 -82 -10t-64.5 -31t-43.5 -54t-19 -78zM390 282v-82
q0 -38 -14.5 -68t-39 -51t-57.5 -32t-69 -11q-22 0 -43 7t-37 20.5t-25.5 32t-9.5 42.5q0 38 22.5 58.5t57.5 31.5t77.5 16.5t82.5 12.5q13 2 30 7t23 16h2z" />
    <glyph glyph-name="adieresis" unicode="&#xe4;" horiz-adv-x="519" 
d="M137 605h68v101h-68v-101zM314 605h68v101h-68v-101zM54 358h63q2 63 40 91.5t98 28.5q28 0 52.5 -4.5t43 -16.5t29 -32.5t10.5 -52.5q0 -21 -5.5 -34t-15.5 -20.5t-25 -10.5t-35 -5q-51 -6 -100.5 -12.5t-89 -22.5t-63.5 -46.5t-24 -84.5q0 -39 13.5 -67.5t37 -47
t55 -27t67.5 -8.5q38 0 65.5 7t49 20t39 32.5t34.5 44.5h2q0 -20 2.5 -36.5t10.5 -28.5t22.5 -18.5t38.5 -6.5q13 0 21.5 1t19.5 3v53q-9 -4 -20 -4q-37 0 -37 38v274q0 52 -17 84.5t-44 50.5t-61 24.5t-68 6.5q-45 0 -82 -10t-64.5 -31t-43.5 -54t-19 -78zM390 282v-82
q0 -38 -14.5 -68t-39 -51t-57.5 -32t-69 -11q-22 0 -43 7t-37 20.5t-25.5 32t-9.5 42.5q0 38 22.5 58.5t57.5 31.5t77.5 16.5t82.5 12.5q13 2 30 7t23 16h2z" />
    <glyph glyph-name="atilde" unicode="&#xe3;" horiz-adv-x="519" 
d="M416 708h-38q-6 -20 -17.5 -34t-34.5 -14q-14 0 -28.5 7t-31 15t-35.5 15t-40 7q-19 0 -35 -8.5t-27 -22t-18 -30.5t-9 -35h39q0 25 15 38t38 13q13 0 28 -7t32 -16t36 -16t39 -7t35 8.5t25.5 22t17 30.5t9.5 34zM54 358h63q2 63 40 91.5t98 28.5q28 0 52.5 -4.5
t43 -16.5t29 -32.5t10.5 -52.5q0 -21 -5.5 -34t-15.5 -20.5t-25 -10.5t-35 -5q-51 -6 -100.5 -12.5t-89 -22.5t-63.5 -46.5t-24 -84.5q0 -39 13.5 -67.5t37 -47t55 -27t67.5 -8.5q38 0 65.5 7t49 20t39 32.5t34.5 44.5h2q0 -20 2.5 -36.5t10.5 -28.5t22.5 -18.5t38.5 -6.5
q13 0 21.5 1t19.5 3v53q-9 -4 -20 -4q-37 0 -37 38v274q0 52 -17 84.5t-44 50.5t-61 24.5t-68 6.5q-45 0 -82 -10t-64.5 -31t-43.5 -54t-19 -78zM390 282v-82q0 -38 -14.5 -68t-39 -51t-57.5 -32t-69 -11q-22 0 -43 7t-37 20.5t-25.5 32t-9.5 42.5q0 38 22.5 58.5t57.5 31.5
t77.5 16.5t82.5 12.5q13 2 30 7t23 16h2z" />
    <glyph glyph-name="aring" unicode="&#xe5;" horiz-adv-x="519" 
d="M192 677q0 29 19.5 48.5t48.5 19.5t48.5 -19.5t19.5 -48.5t-19.5 -48.5t-48.5 -19.5t-48.5 19.5t-19.5 48.5zM153 677q0 -22 8.5 -41.5t23 -34t34 -23t41.5 -8.5t41.5 8.5t34 23t23 34t8.5 41.5t-8.5 41.5t-23 34t-34 23t-41.5 8.5t-41.5 -8.5t-34 -23t-23 -34
t-8.5 -41.5zM54 358h63q2 63 40 91.5t98 28.5q28 0 52.5 -4.5t43 -16.5t29 -32.5t10.5 -52.5q0 -21 -5.5 -34t-15.5 -20.5t-25 -10.5t-35 -5q-51 -6 -100.5 -12.5t-89 -22.5t-63.5 -46.5t-24 -84.5q0 -39 13.5 -67.5t37 -47t55 -27t67.5 -8.5q38 0 65.5 7t49 20t39 32.5
t34.5 44.5h2q0 -20 2.5 -36.5t10.5 -28.5t22.5 -18.5t38.5 -6.5q13 0 21.5 1t19.5 3v53q-9 -4 -20 -4q-37 0 -37 38v274q0 52 -17 84.5t-44 50.5t-61 24.5t-68 6.5q-45 0 -82 -10t-64.5 -31t-43.5 -54t-19 -78zM390 282v-82q0 -38 -14.5 -68t-39 -51t-57.5 -32t-69 -11
q-22 0 -43 7t-37 20.5t-25.5 32t-9.5 42.5q0 38 22.5 58.5t57.5 31.5t77.5 16.5t82.5 12.5q13 2 30 7t23 16h2z" />
    <glyph glyph-name="ccedilla" unicode="&#xe7;" horiz-adv-x="519" 
d="M491 185h-63q-3 -32 -16 -59t-33 -46.5t-46 -30.5t-55 -11q-45 0 -79 19t-56.5 50t-34 70.5t-11.5 80.5t11.5 80.5t34 70.5t56.5 50t79 19q63 0 98 -33t48 -91h63q-11 89 -68.5 133t-140.5 44q-59 0 -104.5 -22t-76.5 -59t-47 -86.5t-16 -105.5q0 -52 14 -98.5t41 -82.5
t67 -59.5t92 -29.5l-51 -66l16 -15q18 8 51 8q17 0 30 -10t13 -28q0 -23 -16 -33t-37 -10q-22 0 -44 4.5t-35 9.5l-14 -32q22 -11 46 -16t48 -5q19 0 38.5 5t35.5 15.5t26 26.5t10 39t-11.5 37t-29 20.5t-37.5 7t-38 -2.5l33 43q85 2 140.5 53.5t68.5 145.5z" />
    <glyph glyph-name="eacute" unicode="&#xe9;" horiz-adv-x="519" 
d="M251 588l132 141h-78l-105 -141h51zM431 294h-334q4 35 16.5 68.5t33.5 59t51 41t69 15.5q38 0 68 -15.5t51 -41t32.5 -58.5t12.5 -69zM97 241h397q2 54 -10 106.5t-39.5 93t-71.5 65.5t-106 25q-61 0 -105.5 -23.5t-72.5 -62t-41.5 -87.5t-13.5 -100q0 -55 13.5 -104.5
t41.5 -87t72.5 -59t105.5 -21.5q98 0 151.5 48t73.5 136h-63q-15 -60 -54 -96t-108 -36q-45 0 -77 19t-53 48t-30.5 65.5t-9.5 70.5z" />
    <glyph glyph-name="egrave" unicode="&#xe8;" horiz-adv-x="519" 
d="M136 729l132 -141h51l-105 141h-78zM431 294h-334q4 35 16.5 68.5t33.5 59t51 41t69 15.5q38 0 68 -15.5t51 -41t32.5 -58.5t12.5 -69zM97 241h397q2 54 -10 106.5t-39.5 93t-71.5 65.5t-106 25q-61 0 -105.5 -23.5t-72.5 -62t-41.5 -87.5t-13.5 -100q0 -55 13.5 -104.5
t41.5 -87t72.5 -59t105.5 -21.5q98 0 151.5 48t73.5 136h-63q-15 -60 -54 -96t-108 -36q-45 0 -77 19t-53 48t-30.5 65.5t-9.5 70.5z" />
    <glyph glyph-name="ecircumflex" unicode="&#xea;" horiz-adv-x="519" 
d="M408 588l-114 141h-69l-114 -141h58l88 102l86 -102h65zM431 294h-334q4 35 16.5 68.5t33.5 59t51 41t69 15.5q38 0 68 -15.5t51 -41t32.5 -58.5t12.5 -69zM97 241h397q2 54 -10 106.5t-39.5 93t-71.5 65.5t-106 25q-61 0 -105.5 -23.5t-72.5 -62t-41.5 -87.5t-13.5 -100
q0 -55 13.5 -104.5t41.5 -87t72.5 -59t105.5 -21.5q98 0 151.5 48t73.5 136h-63q-15 -60 -54 -96t-108 -36q-45 0 -77 19t-53 48t-30.5 65.5t-9.5 70.5z" />
    <glyph glyph-name="edieresis" unicode="&#xeb;" horiz-adv-x="519" 
d="M137 605h68v101h-68v-101zM314 605h68v101h-68v-101zM431 294h-334q4 35 16.5 68.5t33.5 59t51 41t69 15.5q38 0 68 -15.5t51 -41t32.5 -58.5t12.5 -69zM97 241h397q2 54 -10 106.5t-39.5 93t-71.5 65.5t-106 25q-61 0 -105.5 -23.5t-72.5 -62t-41.5 -87.5t-13.5 -100
q0 -55 13.5 -104.5t41.5 -87t72.5 -59t105.5 -21.5q98 0 151.5 48t73.5 136h-63q-15 -60 -54 -96t-108 -36q-45 0 -77 19t-53 48t-30.5 65.5t-9.5 70.5z" />
    <glyph glyph-name="iacute" unicode="&#xed;" horiz-adv-x="185" 
d="M84 588l132 141h-78l-105 -141h51zM61 0h63v516h-63v-516z" />
    <glyph glyph-name="igrave" unicode="&#xec;" horiz-adv-x="185" 
d="M-30 729l131 -141h51l-105 141h-77zM61 0h63v516h-63v-516z" />
    <glyph glyph-name="icircumflex" unicode="&#xee;" horiz-adv-x="185" 
d="M241 588l-114 141h-69l-113 -141h57l88 102l86 -102h65zM61 0h63v516h-63v-516z" />
    <glyph glyph-name="idieresis" unicode="&#xef;" horiz-adv-x="185" 
d="M-29 605h67v101h-67v-101zM147 605h68v101h-68v-101zM61 0h63v516h-63v-516z" />
    <glyph glyph-name="ntilde" unicode="&#xf1;" horiz-adv-x="537" 
d="M425 708h-38q-6 -20 -17.5 -34t-34.5 -14q-14 0 -28.5 7t-31 15t-35.5 15t-40 7q-19 0 -35 -8.5t-27 -22t-18 -30.5t-9 -35h39q0 25 15 38t38 13q13 0 28 -7t32 -16t36 -16t39 -7t35 8.5t25.5 22t17 30.5t9.5 34zM59 516v-516h63v301q1 38 12.5 70.5t32 56t50 37
t67.5 13.5t63.5 -12t40.5 -33t21 -49.5t6 -61.5v-322h63v332q0 46 -9 83t-31 62.5t-58.5 39.5t-90.5 14q-55 0 -101 -28.5t-64 -75.5h-2v89h-63z" />
    <glyph glyph-name="oacute" unicode="&#xf3;" 
d="M270 588l132 141h-78l-105 -141h51zM278 478q45 0 79 -19t56.5 -50t34 -70.5t11.5 -80.5t-11.5 -80.5t-34 -70.5t-56.5 -50t-79 -19t-79 19t-56.5 50t-34 70.5t-11.5 80.5t11.5 80.5t34 70.5t56.5 50t79 19zM278 531q-59 0 -104.5 -22t-76.5 -59t-47 -86.5t-16 -105.5
t16 -105.5t47 -86.5t76.5 -58.5t104.5 -21.5t104.5 21.5t76.5 58.5t47 86.5t16 105.5t-16 105.5t-47 86.5t-76.5 59t-104.5 22z" />
    <glyph glyph-name="ograve" unicode="&#xf2;" 
d="M155 729l132 -141h51l-105 141h-78zM278 478q45 0 79 -19t56.5 -50t34 -70.5t11.5 -80.5t-11.5 -80.5t-34 -70.5t-56.5 -50t-79 -19t-79 19t-56.5 50t-34 70.5t-11.5 80.5t11.5 80.5t34 70.5t56.5 50t79 19zM278 531q-59 0 -104.5 -22t-76.5 -59t-47 -86.5t-16 -105.5
t16 -105.5t47 -86.5t76.5 -58.5t104.5 -21.5t104.5 21.5t76.5 58.5t47 86.5t16 105.5t-16 105.5t-47 86.5t-76.5 59t-104.5 22z" />
    <glyph glyph-name="ocircumflex" unicode="&#xf4;" 
d="M427 588l-114 141h-69l-114 -141h58l88 102l86 -102h65zM278 478q45 0 79 -19t56.5 -50t34 -70.5t11.5 -80.5t-11.5 -80.5t-34 -70.5t-56.5 -50t-79 -19t-79 19t-56.5 50t-34 70.5t-11.5 80.5t11.5 80.5t34 70.5t56.5 50t79 19zM278 531q-59 0 -104.5 -22t-76.5 -59
t-47 -86.5t-16 -105.5t16 -105.5t47 -86.5t76.5 -58.5t104.5 -21.5t104.5 21.5t76.5 58.5t47 86.5t16 105.5t-16 105.5t-47 86.5t-76.5 59t-104.5 22z" />
    <glyph glyph-name="odieresis" unicode="&#xf6;" 
d="M156 605h68v101h-68v-101zM333 605h68v101h-68v-101zM278 478q45 0 79 -19t56.5 -50t34 -70.5t11.5 -80.5t-11.5 -80.5t-34 -70.5t-56.5 -50t-79 -19t-79 19t-56.5 50t-34 70.5t-11.5 80.5t11.5 80.5t34 70.5t56.5 50t79 19zM278 531q-59 0 -104.5 -22t-76.5 -59
t-47 -86.5t-16 -105.5t16 -105.5t47 -86.5t76.5 -58.5t104.5 -21.5t104.5 21.5t76.5 58.5t47 86.5t16 105.5t-16 105.5t-47 86.5t-76.5 59t-104.5 22z" />
    <glyph glyph-name="otilde" unicode="&#xf5;" 
d="M435 708h-38q-6 -20 -17.5 -34t-34.5 -14q-14 0 -28.5 7t-31 15t-35.5 15t-40 7q-19 0 -35 -8.5t-27 -22t-18 -30.5t-9 -35h39q0 25 15 38t38 13q13 0 28 -7t32 -16t36 -16t39 -7t35 8.5t25.5 22t17 30.5t9.5 34zM278 478q45 0 79 -19t56.5 -50t34 -70.5t11.5 -80.5
t-11.5 -80.5t-34 -70.5t-56.5 -50t-79 -19t-79 19t-56.5 50t-34 70.5t-11.5 80.5t11.5 80.5t34 70.5t56.5 50t79 19zM278 531q-59 0 -104.5 -22t-76.5 -59t-47 -86.5t-16 -105.5t16 -105.5t47 -86.5t76.5 -58.5t104.5 -21.5t104.5 21.5t76.5 58.5t47 86.5t16 105.5
t-16 105.5t-47 86.5t-76.5 59t-104.5 22z" />
    <glyph glyph-name="uacute" unicode="&#xfa;" horiz-adv-x="537" 
d="M260 588l132 141h-78l-105 -141h51zM478 0v516h-63v-271q0 -39 -9 -76.5t-28 -66.5t-48 -46.5t-70 -17.5q-75 0 -105.5 36t-32.5 106v336h-63v-335q0 -46 10 -82t31.5 -61t56 -38.5t83.5 -13.5q58 0 105.5 27.5t72.5 79.5h2v-93h58z" />
    <glyph glyph-name="ugrave" unicode="&#xf9;" horiz-adv-x="537" 
d="M145 729l132 -141h51l-105 141h-78zM478 0v516h-63v-271q0 -39 -9 -76.5t-28 -66.5t-48 -46.5t-70 -17.5q-75 0 -105.5 36t-32.5 106v336h-63v-335q0 -46 10 -82t31.5 -61t56 -38.5t83.5 -13.5q58 0 105.5 27.5t72.5 79.5h2v-93h58z" />
    <glyph glyph-name="ucircumflex" unicode="&#xfb;" horiz-adv-x="537" 
d="M417 588l-114 141h-69l-114 -141h58l88 102l86 -102h65zM478 0v516h-63v-271q0 -39 -9 -76.5t-28 -66.5t-48 -46.5t-70 -17.5q-75 0 -105.5 36t-32.5 106v336h-63v-335q0 -46 10 -82t31.5 -61t56 -38.5t83.5 -13.5q58 0 105.5 27.5t72.5 79.5h2v-93h58z" />
    <glyph glyph-name="udieresis" unicode="&#xfc;" horiz-adv-x="537" 
d="M146 605h68v101h-68v-101zM323 605h68v101h-68v-101zM478 0v516h-63v-271q0 -39 -9 -76.5t-28 -66.5t-48 -46.5t-70 -17.5q-75 0 -105.5 36t-32.5 106v336h-63v-335q0 -46 10 -82t31.5 -61t56 -38.5t83.5 -13.5q58 0 105.5 27.5t72.5 79.5h2v-93h58z" />
    <glyph glyph-name="dagger" unicode="&#x2020;" 
d="M48 440h198v-590h63v590h199v53h-199v221h-63v-221h-198v-53z" />
    <glyph glyph-name="degree" unicode="&#xb0;" horiz-adv-x="400" 
d="M95 562q0 22 8 41t22.5 33.5t33.5 22.5t41 8t41 -8t33.5 -22.5t22.5 -33.5t8 -41t-8 -41t-22.5 -33.5t-33.5 -22.5t-41 -8q-45 0 -75 30t-30 75zM56 562q0 -30 11 -56.5t30.5 -46t46 -30.5t56.5 -11t56 11t45.5 30.5t31 46t11.5 56.5t-11.5 56t-31 45.5t-45.5 31
t-56 11.5t-56.5 -11.5t-46 -31t-30.5 -45.5t-11 -56z" />
    <glyph glyph-name="cent" unicode="&#xa2;" 
d="M444 354h63q-5 43 -22 75.5t-43 54.5t-60 34t-73 13v87h-39v-89q-52 -5 -92.5 -28.5t-68 -60t-41.5 -83.5t-14 -99t14 -99t41.5 -83.5t68 -60t92.5 -28.5v-102h39v101q82 3 136 55.5t66 143.5h-63q-3 -30 -15 -56.5t-30.5 -46t-42.5 -31.5t-51 -13v440q57 -2 90 -34.5
t45 -89.5zM270 476v-437q-39 6 -67.5 27t-47.5 51t-28.5 67t-9.5 74q0 38 9.5 74.5t28.5 66.5t47.5 50.5t67.5 26.5z" />
    <glyph glyph-name="sterling" unicode="&#xa3;" 
d="M46 362v-32h81q12 -20 20 -51t8 -54q0 -30 -9 -56t-24.5 -48.5t-36 -43t-42.5 -38.5l36 -53q15 9 27 16.5t24 12.5t26 8t33 3q30 0 54 -6t47 -14t48 -14t58 -6q45 0 79 15.5t67 44.5l-32 48q-21 -23 -52 -39.5t-63 -16.5q-25 0 -45 6.5t-41 14.5q-20 8 -44.5 14t-57.5 6
q-26 0 -50.5 -9.5t-46.5 -20.5l-2 2q21 16 40.5 36t35 43t25 49t9.5 54q0 21 -6.5 50t-17.5 47h142v32h-160q-9 22 -19.5 39.5t-19 35t-14.5 37t-6 45.5q0 40 14 69.5t37 49t53 29t61 9.5q84 0 126.5 -51.5t42.5 -132.5h63q2 112 -59 174.5t-173 62.5q-43 0 -84 -12
t-73 -37.5t-51.5 -64t-19.5 -92.5q0 -45 16 -84.5t39 -76.5h-63z" />
    <glyph glyph-name="section" unicode="&#xa7;" 
d="M511 231q0 49 -25.5 84t-63.5 62t-83 49t-83 45.5t-63.5 50.5t-25.5 65q0 24 9.5 40.5t25.5 27.5t36 16t41 5q26 0 48 -10t37.5 -26.5t23.5 -39t7 -48.5h63q0 87 -50 132t-135 45q-31 0 -61.5 -9.5t-54.5 -27.5t-38.5 -44.5t-14.5 -61.5q0 -65 50 -109q-22 -9 -42 -22.5
t-35 -31.5t-23.5 -39.5t-8.5 -46.5q0 -49 25.5 -84t63.5 -62t83 -49t83 -45.5t63.5 -50.5t25.5 -64q0 -24 -9.5 -40.5t-25.5 -27.5t-36 -16t-41 -5q-26 0 -48 10t-37.5 26.5t-23.5 39t-7 47.5h-63q0 -85 50 -130.5t135 -45.5q32 0 62 9.5t54 27.5t38.5 44.5t14.5 61.5
q0 64 -50 108q22 9 42 22.5t35 31.5t23.5 39.5t8.5 46.5zM448 230q0 -42 -24 -67.5t-60 -40.5q-32 22 -76 44.5t-84 48t-68 56t-28 68.5q0 42 23 67.5t59 40.5q32 -22 76 -43.5t84.5 -47t69 -56.5t28.5 -70z" />
    <glyph glyph-name="bullet" unicode="&#x2022;" horiz-adv-x="500" 
d="M72 357q0 -37 14 -69.5t38 -57t56.5 -38.5t69.5 -14t69.5 14t57 38.5t38.5 57t14 69.5t-14 69.5t-38.5 56.5t-57 38t-69.5 14t-69.5 -14t-56.5 -38t-38 -56.5t-14 -69.5z" />
    <glyph glyph-name="paragraph" unicode="&#xb6;" horiz-adv-x="600" 
d="M273 328v-504h63v837h120v-837h63v890h-230q-106 0 -164.5 -50t-58.5 -146q0 -39 16 -73.5t43.5 -60.5t65.5 -41t82 -15z" />
    <glyph glyph-name="germandbls" unicode="&#xdf;" horiz-adv-x="537" 
d="M61 535v-535h63v530q0 72 31 109t106 37q27 0 51 -9t42 -25.5t28.5 -39.5t10.5 -51q0 -39 -14.5 -64t-39 -39.5t-55.5 -20.5t-64 -6v-53q46 0 84.5 -6t66 -23.5t43 -49.5t15.5 -84q0 -43 -14 -73.5t-36.5 -50t-51.5 -28t-60 -8.5q-12 0 -23.5 1t-23.5 3v-54q7 -1 13 -1.5
t12 -0.5h25q48 1 88.5 15t70 42t46.5 69.5t17 96.5q0 34 -9.5 66t-28.5 57.5t-47 42t-64 19.5v2q54 12 83.5 54t29.5 96q0 43 -15.5 75.5t-42.5 55t-62.5 34t-75.5 11.5q-45 0 -81.5 -12t-62.5 -36t-40.5 -60.5t-14.5 -85.5z" />
    <glyph glyph-name="registered" unicode="&#xae;" horiz-adv-x="800" 
d="M388 378h-70v149h97q20 0 38 -3t32.5 -11.5t23 -22.5t8.5 -37q0 -27 -11 -42.5t-29 -22.5t-41.5 -8.5t-47.5 -1.5zM318 142v191h89l121 -191h62l-128 191q22 4 41.5 12.5t34.5 23t23.5 35.5t8.5 49q0 58 -33.5 88.5t-106.5 30.5h-165v-430h53zM400 676q67 0 124.5 -25
t99.5 -68t66 -101t24 -125t-24 -125t-66 -101t-99.5 -68t-124.5 -25q-68 0 -125.5 25t-99.5 68t-65.5 101t-23.5 125t23.5 125t65.5 101t99.5 68t125.5 25zM400 729q-79 0 -147 -28.5t-118 -79t-78.5 -118.5t-28.5 -146q0 -79 28.5 -146.5t78.5 -117.5t118 -78.5t147 -28.5
t147 28.5t118 78.5t78.5 117.5t28.5 146.5q0 78 -28.5 146t-78.5 118.5t-118 79t-147 28.5z" />
    <glyph glyph-name="copyright" unicode="&#xa9;" horiz-adv-x="800" 
d="M543 435h51q-5 36 -21 64.5t-41 47.5t-56.5 29t-66.5 10q-51 0 -91.5 -17t-68 -48t-42.5 -72.5t-15 -91.5q0 -49 15 -91t42.5 -73t68 -48t91.5 -17q35 0 66.5 10t56.5 29t41 47.5t21 64.5h-51q-9 -45 -43.5 -75.5t-89.5 -30.5q-40 0 -71 14t-52 39t-31.5 58.5t-10.5 72.5
t10.5 72.5t31.5 58.5t52 39t71 14q55 -1 89.5 -31t43.5 -75zM714 357q0 -67 -24 -125t-66 -101t-99.5 -68t-124.5 -25q-68 0 -125.5 25t-99.5 68t-65.5 101t-23.5 125t23.5 125t65.5 101t99.5 68t125.5 25q67 0 124.5 -25t99.5 -68t66 -101t24 -125zM772 357q0 78 -28.5 146
t-78.5 118.5t-118 79t-147 28.5t-147 -28.5t-118 -79t-78.5 -118.5t-28.5 -146q0 -79 28.5 -146.5t78.5 -117.5t118 -78.5t147 -28.5t147 28.5t118 78.5t78.5 117.5t28.5 146.5z" />
    <glyph glyph-name="trademark" unicode="&#x2122;" horiz-adv-x="990" 
d="M476 302h53v364h2l146 -364h30l146 364h2v-364h53v412h-85l-129 -334l-133 334h-85v-412zM216 302h53v367h134v45h-321v-45h134v-367z" />
    <glyph glyph-name="acute" unicode="&#xb4;" horiz-adv-x="185" 
d="M84 588l132 141h-78l-105 -141h51z" />
    <glyph glyph-name="dieresis" unicode="&#xa8;" horiz-adv-x="185" 
d="M-29 605h67v101h-67v-101zM147 605h68v101h-68v-101z" />
    <glyph glyph-name="notequal" unicode="&#x2260;" horiz-adv-x="600" 
d="M139 15l60 113h-150v53h179l76 144h-255v53h284l75 141l46 -25l-62 -116h160v-53h-188l-77 -144h265v-53h-293l-73 -138z" />
    <glyph glyph-name="AE" unicode="&#xc6;" horiz-adv-x="907" 
d="M445 284h-229l189 372h40v-372zM513 58v282h344v58h-344v258h367v58h-513l-373 -714h76l116 226h259v-226h439v58h-371z" />
    <glyph glyph-name="Oslash" unicode="&#xd8;" horiz-adv-x="741" 
d="M698 696l-26 23l-71 -78q-42 42 -98.5 65t-131.5 23q-84 0 -147.5 -30.5t-105.5 -82t-63 -118.5t-21 -141q0 -72 20 -138t62 -118l-79 -88l27 -24l76 85q42 -42 99 -65t132 -23q84 0 147 30.5t105 81.5t63 118t21 141q0 73 -20 140t-62 118zM558 593l-398 -443
q-30 43 -44 96.5t-14 110.5q0 59 15.5 115t48 100.5t83.5 71.5t122 27q63 0 109 -21.5t78 -56.5zM183 122l397 443q31 -43 45 -97t14 -111q0 -58 -15.5 -114.5t-48 -101t-83 -71.5t-121.5 -27q-63 0 -109 21t-79 58z" />
    <glyph glyph-name="infinity" unicode="&#x221e;" horiz-adv-x="710" 
d="M165 110q-30 0 -55 11t-43 29.5t-27.5 44.5t-9.5 56q0 29 9.5 55.5t26.5 46.5t42 31.5t55 11.5t56.5 -10.5t50.5 -27t45 -36.5t41 -39q18 19 39 39t44 36.5t48.5 27t54.5 10.5q31 0 56.5 -11t43.5 -30t28 -45t10 -56t-9.5 -56.5t-27 -46t-43 -30.5t-56.5 -11
q-29 0 -54.5 9.5t-49 24.5t-44.5 34t-40 38q-19 -18 -40 -37t-45 -34t-50 -25t-56 -10zM167 163q20 0 41 8.5t41.5 21.5t38.5 28.5t32 28.5q-15 13 -33.5 29.5t-39.5 30.5t-42.5 23.5t-41.5 9.5q-19 0 -34 -8t-25.5 -20.5t-16 -29t-5.5 -34.5q0 -39 22.5 -63.5t62.5 -24.5z
M547 163q39 0 60 25.5t21 62.5q0 39 -21.5 65.5t-63.5 26.5q-21 0 -42 -9.5t-40.5 -23.5t-37.5 -30t-32 -30q16 -15 33.5 -30t37 -28t41 -21t44.5 -8z" />
    <glyph glyph-name="plusminus" unicode="&#xb1;" horiz-adv-x="600" 
d="M49 53v-53h503v53h-503zM274 503v-180h-224v-53h224v-180h53v180h225v53h-225v180h-53z" />
    <glyph glyph-name="lessequal" unicode="&#x2264;" horiz-adv-x="600" 
d="M50 38h500v-54h-500v54zM50 272v59l500 191v-59l-425 -161l425 -161v-60z" />
    <glyph glyph-name="greaterequal" unicode="&#x2265;" horiz-adv-x="600" 
d="M50 -16v54h500v-54h-500zM50 81v60l425 161l-425 161v59l500 -191v-59z" />
    <glyph glyph-name="yen" unicode="&#xa5;" 
d="M110 349v-45h129l6 -10v-73h-135v-45h135v-176h63v176h137v45h-137v73l6 10h131v45h-109l211 365h-69l-201 -365l-199 365h-72l210 -365h-106z" />
    <glyph glyph-name="mu" unicode="&#xb5;" horiz-adv-x="537" 
d="M478 0v516h-63v-271q0 -39 -9 -76.5t-28 -66.5t-48 -46.5t-70 -17.5q-75 0 -105.5 36t-32.5 106v336h-63v-706h64v210q24 -18 54.5 -26t62.5 -8q58 0 105.5 27.5t72.5 79.5h2v-93h58z" />
    <glyph glyph-name="partialdiff" unicode="&#x2202;" horiz-adv-x="500" 
d="M233 -12q-47 0 -84 18.5t-62.5 49.5t-39 71.5t-13.5 84.5q0 43 13 82t38 68t61 46t82 17q49 0 92 -23t74 -61q0 13 0.5 26t0.5 26q0 42 -8.5 89.5t-29 88.5t-55 68t-86.5 27q-35 0 -60.5 -13t-51.5 -33l-36 43q32 28 67 43t78 15q48 0 85 -15.5t64 -42.5t45.5 -62.5
t29.5 -75.5t16 -81.5t5 -80.5q0 -55 -8 -120.5t-32 -122t-68.5 -94.5t-116.5 -38zM234 41q43 0 72 24t47 60t26 77.5t10 75.5q-27 36 -67 63.5t-88 27.5q-34 0 -59.5 -13t-43 -35t-26 -51t-8.5 -60q0 -30 8.5 -60t26 -54.5t43 -39.5t59.5 -15z" />
    <glyph glyph-name="summation" unicode="&#x2211;" horiz-adv-x="547" 
d="M0 -163l331 452l-317 445v52h521v-58h-437l314 -439l-332 -446h467v-57h-547v51z" />
    <glyph glyph-name="product" unicode="&#x220f;" horiz-adv-x="714" 
d="M72 786h570v-1000h-63v942h-444v-942h-63v1000z" />
    <glyph glyph-name="pi" unicode="&#x3c0;" horiz-adv-x="598" 
d="M504 -6q-29 0 -45 9.5t-23.5 26t-9 37.5t-1.5 44v352h-262v-463h-63v463h-70v53h534v-53h-76v-359q0 -22 5.5 -38t32.5 -16q20 0 42 10v-49q-17 -8 -31.5 -12.5t-32.5 -4.5z" />
    <glyph glyph-name="integral" unicode="&#x222b;" horiz-adv-x="307" 
d="M61 -213q-21 0 -40.5 11t-19.5 36q0 14 9.5 23t23.5 9q13 0 20 -6t11.5 -13t8.5 -13t10 -6q12 0 18.5 20t9.5 44t3.5 44l0.5 20q-1 74 -1 168v447q0 36 3.5 74t16.5 69.5t36.5 51.5t64.5 20q11 0 23.5 -2.5t23 -8.5t17 -15.5t6.5 -23.5q0 -17 -10.5 -25.5t-26.5 -8.5
q-14 0 -21 6t-11.5 13.5t-8.5 14t-11 6.5q-12 0 -18.5 -15.5t-10 -39t-4.5 -50t-1 -47.5v-567q0 -34 -2.5 -75t-14.5 -77t-36.5 -60t-68.5 -24z" />
    <glyph glyph-name="ordfeminine" unicode="&#xaa;" horiz-adv-x="311" 
d="M7 597h47q1 36 26 53t60 17q36 0 62 -13.5t26 -53.5q0 -17 -13.5 -22.5t-39.5 -8.5q-34 -3 -66 -6.5t-57 -14t-40.5 -30t-15.5 -54.5q0 -51 33 -73.5t84 -22.5q82 0 123 65h2q0 -27 8.5 -41.5t39.5 -14.5q8 0 15 1t12 2v34q-6 -3 -13 -3q-23 0 -25 23v172
q0 31 -10.5 50.5t-28.5 30.5t-41 15t-48 4q-61 0 -99 -25.5t-41 -83.5zM228 549v-47q0 -22 -9.5 -39.5t-25.5 -30t-37.5 -19t-44.5 -6.5q-12 0 -24 4t-22 12t-16.5 19t-6.5 24q0 21 12 32.5t32.5 18t48 10t57.5 8.5q8 2 19.5 4.5t14.5 9.5h2z" />
    <glyph glyph-name="ordmasculine" unicode="&#xba;" horiz-adv-x="334" 
d="M167 407q-29 0 -51 11.5t-36.5 29.5t-22 41.5t-7.5 47.5t7.5 47.5t22 41.5t36.5 29.5t51 11.5t51 -11.5t36.5 -29.5t22 -41.5t7.5 -47.5t-7.5 -47.5t-22 -41.5t-36.5 -29.5t-51 -11.5zM162 368q42 0 74 13t53 36t31.5 54t10.5 66t-10.5 66t-31.5 54t-53 36t-74 13
q-39 0 -68.5 -13t-49.5 -36t-30.5 -54t-10.5 -66t10.5 -66t30.5 -54t49.5 -36t68.5 -13z" />
    <glyph glyph-name="Omegagreek" unicode="&#x3a9;" horiz-adv-x="756" 
d="M59 58h197v82q-47 13 -83.5 40t-62 63.5t-38.5 80.5t-13 92q0 67 25.5 123t69.5 96.5t102 63t123 22.5t122.5 -22.5t101 -63t69 -96.5t25.5 -122q0 -48 -13 -92.5t-38 -81t-61.5 -63.5t-84.5 -40v-82h197v-58h-251v182q45 8 79.5 28.5t58 51t35 69.5t11.5 84
q0 54 -19.5 99.5t-53 78.5t-79.5 51.5t-99 18.5t-99 -19t-80.5 -52t-54 -78.5t-19.5 -98.5q0 -44 11.5 -83.5t35 -70t58 -51.5t79.5 -28v-182h-251v58z" />
    <glyph glyph-name="ae" unicode="&#xe6;" horiz-adv-x="870" 
d="M453 241h388q0 56 -11 108.5t-37 93t-68.5 64.5t-106.5 24q-28 0 -56 -6.5t-52.5 -20t-43.5 -33.5t-29 -47h-2q-5 33 -22.5 54t-42 32.5t-53 16t-54.5 4.5q-45 0 -82 -10t-64.5 -31t-43.5 -54t-19 -78h63q2 63 40 91.5t98 28.5q28 0 52.5 -4.5t43 -16.5t29 -32.5
t10.5 -52.5q0 -21 -5.5 -34t-15.5 -20.5t-25 -10.5t-35 -5q-51 -6 -100.5 -12.5t-89 -22.5t-63.5 -46.5t-24 -84.5q0 -39 13.5 -67.5t37 -47t55 -27t67.5 -8.5q34 0 70 8t66.5 24t52 40t27.5 57h2q23 -66 71.5 -97.5t117.5 -31.5q91 0 148 46.5t77 134.5h-63
q-14 -61 -51.5 -95t-101.5 -34q-45 0 -78 16.5t-54 44t-30 64.5t-6 78zM390 282v-82q0 -38 -14.5 -68t-39 -51t-57.5 -32t-69 -11q-22 0 -43 7t-37 20.5t-25.5 32t-9.5 42.5q0 38 22.5 58.5t57.5 31.5t77.5 16.5t82.5 12.5q13 2 30 7t23 16h2zM778 294h-325q-1 36 9.5 69.5
t31.5 59t51.5 40.5t69.5 15q38 0 68 -15.5t51 -41t32.5 -58.5t11.5 -69z" />
    <glyph glyph-name="oslash" unicode="&#xf8;" 
d="M522 499l-22 20l-52 -56q-30 32 -73 50t-97 18q-59 0 -104.5 -22t-76.5 -59t-47 -86.5t-16 -105.5q0 -52 14 -99t42 -83l-61 -67l22 -19l59 63q30 -32 72 -49.5t96 -17.5q59 0 104.5 21.5t76.5 58.5t47 86.5t16 105.5q0 51 -13.5 97.5t-40.5 84.5zM151 97l273 295
q18 -29 26.5 -63.5t8.5 -70.5q0 -41 -11.5 -80.5t-34 -70.5t-56.5 -50t-79 -19q-42 0 -74 16.5t-53 42.5zM406 418l-273 -295q-19 30 -27.5 64.5t-8.5 70.5q0 41 11.5 80.5t34 70.5t56.5 50t79 19q42 0 74 -16.5t54 -43.5z" />
    <glyph glyph-name="questiondown" unicode="&#xbf;" horiz-adv-x="537" 
d="M307 410v106h-84v-106h84zM484 29h-63q1 -38 -9 -71t-30 -57.5t-50.5 -38.5t-71.5 -14q-29 0 -55 10t-45.5 27.5t-31 42.5t-11.5 55q0 38 18.5 70t46.5 58q32 29 54 52t36 47.5t20 56t5 77.5h-63q-1 -30 -2 -50.5t-4.5 -35.5t-9.5 -26t-16 -22.5t-25 -25.5t-36 -35
q-38 -36 -62.5 -75t-24.5 -94q0 -44 16 -78t44 -58t64.5 -36.5t78.5 -12.5q54 0 96 16.5t71.5 47.5t44.5 74t15 96z" />
    <glyph glyph-name="exclamdown" unicode="&#xa1;" horiz-adv-x="241" 
d="M163 516h-84v-106h84v106zM155 15l-15 323h-38l-15 -323v-205h68v205z" />
    <glyph glyph-name="logicalnot" unicode="&#xac;" horiz-adv-x="600" 
d="M499 325v-214h53v267h-503v-53h450z" />
    <glyph glyph-name="radical" unicode="&#x221a;" horiz-adv-x="518" 
d="M78 123l-47 -22l-26 55l107 51l154 -326l186 905h65l-211 -1000h-65z" />
    <glyph glyph-name="florin" unicode="&#x192;" 
d="M16 -113l-9 -54q28 -5 45 -5q57 -1 90 19t51.5 53t27 75.5l17.5 87.5l61 323h113l9 53h-113l14 67q6 26 12 53t17 49.5t30 37t51 15.5q11 0 23 -1t23 -3l12 52q-16 2 -31 3.5t-31 1.5q-49 0 -78.5 -17.5t-47 -46t-26.5 -66t-18 -76.5l-13 -69h-101l-9 -53h100l-75 -393
q-4 -18 -10.5 -37.5t-17 -35.5t-26 -27t-38.5 -12q-26 0 -52 6z" />
    <glyph glyph-name="approxequal" unicode="&#x2248;" horiz-adv-x="600" 
d="M39 99q4 25 12 49.5t22 43.5t35.5 30.5t51.5 11.5q33 0 70 -11.5t74 -25t72 -25t64 -11.5q36 0 55 23.5t26 55.5h40q-3 -26 -11 -49.5t-22.5 -42.5t-36 -30t-50.5 -11q-33 0 -70.5 11.5t-74.5 25.5t-72 25.5t-63 11.5q-35 0 -55.5 -25t-25.5 -57h-41zM39 265
q4 25 12 49.5t22 43.5t35.5 30.5t51.5 11.5q33 0 70 -11.5t74 -25t72 -25t64 -11.5q36 0 55 23.5t26 55.5h40q-3 -26 -11 -49.5t-22.5 -42.5t-36 -30t-50.5 -11q-33 0 -70.5 11.5t-74.5 25.5t-72 25.5t-63 11.5q-35 0 -55.5 -25t-25.5 -57h-41z" />
    <glyph glyph-name="Delta" unicode="&#x2206;" horiz-adv-x="633" 
d="M282 714h76l280 -714h-643zM542 58l-225 588l-228 -588h453z" />
    <glyph glyph-name="guillemotleft" unicode="&#xab;" horiz-adv-x="426" 
d="M60 244l133 -125v67l-94 89l94 89v67l-133 -125v-62zM221 244l133 -125v67l-94 89l94 89v67l-133 -125v-62z" />
    <glyph glyph-name="guillemotright" unicode="&#xbb;" horiz-adv-x="426" 
d="M72 186v-67l133 125v62l-133 125v-67l94 -89zM233 186v-67l133 125v62l-133 125v-67l94 -89z" />
    <glyph glyph-name="ellipsis" unicode="&#x2026;" horiz-adv-x="1000" 
d="M791 0h84v106h-84v-106zM458 0h84v106h-84v-106zM125 0h84v106h-84v-106z" />
    <glyph glyph-name="nonbreakingspace" unicode="&#xa0;" horiz-adv-x="278" 
 />
    <glyph glyph-name="Agrave" unicode="&#xc0;" horiz-adv-x="630" 
d="M192 912l132 -141h51l-105 141h-78zM173 280l143 366l138 -366h-281zM281 714l-287 -714h72l86 222h325l87 -222h73l-280 714h-76z" />
    <glyph glyph-name="Atilde" unicode="&#xc3;" horiz-adv-x="630" 
d="M472 891h-38q-6 -20 -17.5 -34t-34.5 -14q-14 0 -28.5 7t-31 15t-35.5 15t-40 7q-19 0 -35 -8.5t-27 -22t-18 -30.5t-9 -35h39q0 25 15 38t38 13q13 0 28 -7t32 -16t36 -16t39 -7t35 8.5t25.5 22t17 30.5t9.5 34zM173 280l143 366l138 -366h-281zM281 714l-287 -714h72
l86 222h325l87 -222h73l-280 714h-76z" />
    <glyph glyph-name="Otilde" unicode="&#xd5;" horiz-adv-x="741" 
d="M527 891h-38q-6 -20 -17.5 -34t-34.5 -14q-14 0 -28.5 7t-31 15t-35.5 15t-40 7q-19 0 -35 -8.5t-27 -22t-18 -30.5t-9 -35h39q0 25 15 38t38 13q13 0 28 -7t32 -16t36 -16t39 -7t35 8.5t25.5 22t17 30.5t9.5 34zM102 357q0 59 15.5 115t48 100.5t83.5 71.5t122 27
t121.5 -27t83 -71.5t48 -100.5t15.5 -115q0 -58 -15.5 -114.5t-48 -101t-83 -71.5t-121.5 -27t-122 27t-83.5 71.5t-48 101t-15.5 114.5zM34 357q0 -74 21 -141t63 -118t105.5 -81.5t147.5 -30.5t147 30.5t105 81.5t63 118t21 141t-21 141t-63 118.5t-105 82t-147 30.5
t-147.5 -30.5t-105.5 -82t-63 -118.5t-21 -141z" />
    <glyph glyph-name="OE" unicode="&#x152;" horiz-adv-x="1074" 
d="M637 398v258h406v58h-474v-59q-35 39 -86 56.5t-108 17.5q-79 0 -142 -30t-106.5 -81t-66.5 -118.5t-23 -142.5t23 -142.5t66.5 -118.5t106.5 -80.5t142 -29.5q53 0 105.5 21t88.5 63v-70h477v58h-409v282h368v58h-368zM569 509v-332q-1 -15 -4.5 -29t-13.5 -26
q-35 -45 -78 -62t-98 -17q-65 0 -115.5 25.5t-85 68.5t-52 100t-17.5 120t17.5 120t52 100t85 68.5t115.5 25.5q26 0 55 -6.5t56 -18.5t48 -30t30 -41q3 -12 4 -27t1 -39z" />
    <glyph glyph-name="oe" unicode="&#x153;" horiz-adv-x="889" 
d="M800 294h-321q0 37 10 70t30.5 58.5t50.5 40.5t70 15q39 0 69 -15t50 -40.5t30.5 -59t10.5 -69.5zM862 166h-63q-17 -60 -55 -94t-104 -34q-42 0 -72.5 17.5t-50 46t-29 65t-9.5 74.5h384q0 144 -53 217t-168 73q-69 0 -119 -35t-71 -92h-2q-20 66 -69 96.5t-115 30.5
q-58 0 -101.5 -22.5t-72 -60.5t-42.5 -87t-14 -103t12.5 -103.5t40 -87t70.5 -59.5t104 -22q67 0 116.5 32t68.5 98h2q17 -64 68.5 -97t115.5 -33q90 0 148.5 46t79.5 134zM265 478q47 0 76 -19t46 -50t23 -69.5t6 -77.5t-6 -79t-22.5 -72.5t-46 -52.5t-77.5 -20
q-45 0 -76 18t-51 47.5t-29 66.5t-9 76q0 41 7.5 82t26.5 74.5t51 54.5t81 21z" />
    <glyph glyph-name="endash" unicode="&#x2013;" horiz-adv-x="500" 
d="M0 246h500v58h-500v-58z" />
    <glyph glyph-name="emdash" unicode="&#x2014;" horiz-adv-x="1000" 
d="M130 246h740v58h-740v-58z" />
    <glyph glyph-name="quotedblleft" unicode="&#x201c;" horiz-adv-x="370" 
d="M64 471h84v106h-42q-1 12 1.5 26.5t8.5 28t15 24t22 15.5v43q-22 -6 -39 -20t-28 -32.5t-16.5 -40t-5.5 -43.5v-107zM218 471h84v106h-42q-1 12 1.5 26.5t8.5 28t15 24t22 15.5v43q-22 -6 -39 -20t-28 -32.5t-16.5 -40t-5.5 -43.5v-107z" />
    <glyph glyph-name="quotedblright" unicode="&#x201d;" horiz-adv-x="370" 
d="M152 714h-84v-106h42q1 -12 -1.5 -26.5t-8.5 -28.5t-15 -24.5t-22 -14.5v-43q23 6 39.5 20t27.5 32.5t16.5 40t5.5 43.5v107zM306 714h-84v-106h42q1 -12 -1.5 -26.5t-8.5 -28.5t-15 -24.5t-22 -14.5v-43q23 6 39.5 20t27.5 32.5t16.5 40t5.5 43.5v107z" />
    <glyph glyph-name="quoteleft" unicode="&#x2018;" horiz-adv-x="278" 
d="M95 471h84v106h-42q-1 12 1.5 26.5t8.5 28t15 24t22 15.5v43q-22 -6 -39 -20t-28 -32.5t-16.5 -40t-5.5 -43.5v-107z" />
    <glyph glyph-name="quoteright" unicode="&#x2019;" horiz-adv-x="278" 
d="M183 714h-84v-106h42q1 -12 -1.5 -26.5t-8.5 -28.5t-15 -24.5t-22 -14.5v-43q23 6 39.5 20t27.5 32.5t16.5 40t5.5 43.5v107z" />
    <glyph glyph-name="divide" unicode="&#xf7;" horiz-adv-x="600" 
d="M244 50q0 -23 17 -39t40 -16q22 0 38.5 17t16.5 38q0 23 -16.5 39.5t-39.5 16.5t-39.5 -16.5t-16.5 -39.5zM244 453q0 -23 17 -39.5t40 -16.5q22 0 38.5 17.5t16.5 38.5q0 23 -16.5 39.5t-39.5 16.5t-39.5 -16.5t-16.5 -39.5zM49 225h503v53h-503v-53z" />
    <glyph glyph-name="lozenge" unicode="&#x25ca;" horiz-adv-x="600" 
d="M96 349l170 384h67l171 -384l-171 -384h-67zM435 349l-136 314l-134 -314l134 -314z" />
    <glyph glyph-name="ydieresis" unicode="&#xff;" horiz-adv-x="463" 
d="M109 605h68v101h-68v-101zM286 605h68v101h-68v-101zM2 516l206 -514l-22 -58q-8 -18 -15 -33t-17 -25.5t-23.5 -16.5t-34.5 -6q-11 0 -21.5 1.5t-21.5 3.5v-53q8 -3 18.5 -3.5t29.5 -1.5q30 0 49.5 5.5t34 18t26.5 34t26 54.5l224 594h-63l-159 -440l-170 440h-67z" />
    <glyph glyph-name="Ydieresis" unicode="&#x178;" horiz-adv-x="611" 
d="M183 788h68v101h-68v-101zM360 788h68v101h-68v-101zM271 294v-294h68v294l282 420h-81l-234 -362l-235 362h-80z" />
    <glyph glyph-name="fraction" unicode="&#x2044;" horiz-adv-x="167" 
d="M287 725l-452 -758h48l451 758h-47z" />
    <glyph glyph-name="Euro" unicode="&#x20ac;" 
d="M365 -14q-126 0 -202 88q-67 79 -82 211h-66l19 45h44q-1 3 -1 9v11q0 8 0.5 17.5t1.5 21.5h-64l18 45h51q22 123 92 196q76 82 195 82q124 0 186 -77l-27 -59q-66 79 -160 79q-92 0 -150 -67q-51 -58 -69 -154h333l-18 -45h-321q-3 -25 -3 -43v-8q0 -5 1 -8h304l-19 -45
h-282q13 -104 63 -169q60 -75 158 -75q52 0 96 23q35 20 78 63v-77q-76 -64 -176 -64z" />
    <glyph glyph-name="guilsinglleft" unicode="&#x2039;" horiz-adv-x="259" 
d="M53 244l133 -125v67l-94 89l94 89v67l-133 -125v-62z" />
    <glyph glyph-name="guilsinglright" unicode="&#x203a;" horiz-adv-x="259" 
d="M73 186v-67l133 125v62l-133 125v-67l94 -89z" />
    <glyph glyph-name="daggerdbl" unicode="&#x2021;" 
d="M48 47h198v-197h63v197h199v53h-199v363h199v53h-199v198h-63v-198h-198v-53h198v-363h-198v-53z" />
    <glyph glyph-name="periodcentered" unicode="&#xb7;" horiz-adv-x="278" 
d="M139 375q-23 0 -41 -17.5t-18 -40.5q0 -24 17.5 -42t41.5 -18q23 0 41 17.5t18 40.5q0 24 -17.5 42t-41.5 18z" />
    <glyph glyph-name="quotesinglbase" unicode="&#x201a;" horiz-adv-x="278" 
d="M183 106h-84v-106h42q1 -11 -1.5 -25.5t-8.5 -28t-15 -24.5t-22 -15v-43q23 6 39.5 20t27.5 32.5t16.5 40t5.5 43.5v106z" />
    <glyph glyph-name="quotedblbase" unicode="&#x201e;" horiz-adv-x="370" 
d="M152 106h-84v-106h42q1 -11 -1.5 -25.5t-8.5 -28t-15 -24.5t-22 -15v-43q23 6 39.5 20t27.5 32.5t16.5 40t5.5 43.5v106zM306 106h-84v-106h42q1 -11 -1.5 -25.5t-8.5 -28t-15 -24.5t-22 -15v-43q23 6 39.5 20t27.5 32.5t16.5 40t5.5 43.5v106z" />
    <glyph glyph-name="perthousand" unicode="&#x2030;" horiz-adv-x="1111" 
d="M214 661q30 0 48.5 -11t29 -29t14.5 -40t4 -44t-4 -44t-14.5 -40t-29 -29t-48.5 -11t-49 11t-29.5 29t-14 40t-3.5 44t3.5 44t14 40t29.5 29t49 11zM214 706q-40 0 -68.5 -13t-46.5 -35.5t-26 -53.5t-8 -67t8 -67t26 -53.5t46.5 -35.5t68.5 -13q41 0 69 13t46 35.5
t26 53.5t8 67t-8 67t-26 53.5t-46 35.5t-69 13zM901 278q30 0 48.5 -11t29 -29t14.5 -40t4 -44t-4 -44t-14.5 -40t-29 -29t-48.5 -11t-49 11t-29.5 29t-14 40t-3.5 44t3.5 44t14 40t29.5 29t49 11zM901 323q-40 0 -68.5 -13t-46.5 -35.5t-26 -53.5t-8 -67t8 -67t26 -53.5
t46.5 -35t68.5 -12.5q41 0 69 12.5t46 35t26 53.5t8 67t-8 67t-26 53.5t-46 35.5t-69 13zM547 278q30 0 48.5 -11t29 -29t14.5 -40t4 -44t-4 -44t-14.5 -40t-29 -29t-48.5 -11t-49 11t-29.5 29t-14 40t-3.5 44t3.5 44t14 40t29.5 29t49 11zM547 323q-40 0 -68.5 -13
t-46.5 -35.5t-26 -53.5t-8 -67t8 -67t26 -53.5t46.5 -35t68.5 -12.5q41 0 69 12.5t46 35t26 53.5t8 67t-8 67t-26 53.5t-46 35.5t-69 13zM582 725l-453 -758h48l452 758h-47z" />
    <glyph glyph-name="Acircumflex" unicode="&#xc2;" horiz-adv-x="630" 
d="M464 771l-114 141h-69l-114 -141h58l88 102l86 -102h65zM173 280l143 366l138 -366h-281zM281 714l-287 -714h72l86 222h325l87 -222h73l-280 714h-76z" />
    <glyph glyph-name="Ecircumflex" unicode="&#xca;" horiz-adv-x="593" 
d="M445 771l-114 141h-69l-114 -141h58l88 102l86 -102h65zM72 714v-714h498v58h-430v282h398v58h-398v258h425v58h-493z" />
    <glyph glyph-name="Aacute" unicode="&#xc1;" horiz-adv-x="630" 
d="M307 771l132 141h-78l-105 -141h51zM173 280l143 366l138 -366h-281zM281 714l-287 -714h72l86 222h325l87 -222h73l-280 714h-76z" />
    <glyph glyph-name="Edieresis" unicode="&#xcb;" horiz-adv-x="593" 
d="M174 788h68v101h-68v-101zM351 788h68v101h-68v-101zM72 714v-714h498v58h-430v282h398v58h-398v258h425v58h-493z" />
    <glyph glyph-name="Egrave" unicode="&#xc8;" horiz-adv-x="593" 
d="M173 912l132 -141h51l-105 141h-78zM72 714v-714h498v58h-430v282h398v58h-398v258h425v58h-493z" />
    <glyph glyph-name="Iacute" unicode="&#xcd;" horiz-adv-x="222" 
d="M103 771l132 141h-78l-105 -141h51zM77 714v-714h68v714h-68z" />
    <glyph glyph-name="Icircumflex" unicode="&#xce;" horiz-adv-x="222" 
d="M260 771l-114 141h-69l-113 -141h57l88 102l86 -102h65zM77 714v-714h68v714h-68z" />
    <glyph glyph-name="Idieresis" unicode="&#xcf;" horiz-adv-x="222" 
d="M-10 788h67v101h-67v-101zM166 788h68v101h-68v-101zM77 714v-714h68v714h-68z" />
    <glyph glyph-name="Igrave" unicode="&#xcc;" horiz-adv-x="222" 
d="M-11 912l131 -141h51l-105 141h-77zM77 714v-714h68v714h-68z" />
    <glyph glyph-name="Oacute" unicode="&#xd3;" horiz-adv-x="741" 
d="M362 771l132 141h-78l-105 -141h51zM102 357q0 59 15.5 115t48 100.5t83.5 71.5t122 27t121.5 -27t83 -71.5t48 -100.5t15.5 -115q0 -58 -15.5 -114.5t-48 -101t-83 -71.5t-121.5 -27t-122 27t-83.5 71.5t-48 101t-15.5 114.5zM34 357q0 -74 21 -141t63 -118t105.5 -81.5
t147.5 -30.5t147 30.5t105 81.5t63 118t21 141t-21 141t-63 118.5t-105 82t-147 30.5t-147.5 -30.5t-105.5 -82t-63 -118.5t-21 -141z" />
    <glyph glyph-name="Ocircumflex" unicode="&#xd4;" horiz-adv-x="741" 
d="M519 771l-114 141h-69l-114 -141h58l88 102l86 -102h65zM102 357q0 59 15.5 115t48 100.5t83.5 71.5t122 27t121.5 -27t83 -71.5t48 -100.5t15.5 -115q0 -58 -15.5 -114.5t-48 -101t-83 -71.5t-121.5 -27t-122 27t-83.5 71.5t-48 101t-15.5 114.5zM34 357q0 -74 21 -141
t63 -118t105.5 -81.5t147.5 -30.5t147 30.5t105 81.5t63 118t21 141t-21 141t-63 118.5t-105 82t-147 30.5t-147.5 -30.5t-105.5 -82t-63 -118.5t-21 -141z" />
    <glyph glyph-name="apple" unicode="&#xf8ff;" horiz-adv-x="790" 
d="M408 588q-16 0 -69 15q-52 15 -89 15q-86 0 -143 -72q-56 -73 -56 -187q0 -124 74 -252q74 -129 150 -129q24 0 66 17q39 16 72 16q32 0 75 -15q44 -16 71 -16q65 0 129 97q21 32 36 63.5t25 61.5q-45 14 -79 63q-35 50 -35 112q0 57 33 103q18 26 57 60q-13 16 -26 28
t-26 22q-47 32 -107 32q-36 0 -87 -17t-71 -17zM561 790q0 4 -0.5 9t-2.5 12q-88 -20 -125.5 -74.5t-38.5 -128.5q32 3 51 8q26 9 55 36q31 32 46 69t15 69z" />
    <glyph glyph-name="Ograve" unicode="&#xd2;" horiz-adv-x="741" 
d="M247 912l132 -141h51l-105 141h-78zM102 357q0 59 15.5 115t48 100.5t83.5 71.5t122 27t121.5 -27t83 -71.5t48 -100.5t15.5 -115q0 -58 -15.5 -114.5t-48 -101t-83 -71.5t-121.5 -27t-122 27t-83.5 71.5t-48 101t-15.5 114.5zM34 357q0 -74 21 -141t63 -118t105.5 -81.5
t147.5 -30.5t147 30.5t105 81.5t63 118t21 141t-21 141t-63 118.5t-105 82t-147 30.5t-147.5 -30.5t-105.5 -82t-63 -118.5t-21 -141z" />
    <glyph glyph-name="Uacute" unicode="&#xda;" horiz-adv-x="685" 
d="M334 771l132 141h-78l-105 -141h51zM65 714v-457q0 -55 15.5 -104.5t49 -86.5t86 -58.5t126.5 -21.5q75 0 127.5 21.5t86 58.5t49 86.5t15.5 104.5v457h-68v-442q0 -62 -14 -105.5t-41 -71t-66 -40t-89 -12.5q-49 0 -88 12.5t-66 40t-41 71t-14 105.5v442h-68z" />
    <glyph glyph-name="Ucircumflex" unicode="&#xdb;" horiz-adv-x="685" 
d="M491 771l-114 141h-69l-114 -141h58l88 102l86 -102h65zM65 714v-457q0 -55 15.5 -104.5t49 -86.5t86 -58.5t126.5 -21.5q75 0 127.5 21.5t86 58.5t49 86.5t15.5 104.5v457h-68v-442q0 -62 -14 -105.5t-41 -71t-66 -40t-89 -12.5q-49 0 -88 12.5t-66 40t-41 71t-14 105.5
v442h-68z" />
    <glyph glyph-name="Ugrave" unicode="&#xd9;" horiz-adv-x="685" 
d="M219 912l132 -141h51l-105 141h-78zM65 714v-457q0 -55 15.5 -104.5t49 -86.5t86 -58.5t126.5 -21.5q75 0 127.5 21.5t86 58.5t49 86.5t15.5 104.5v457h-68v-442q0 -62 -14 -105.5t-41 -71t-66 -40t-89 -12.5q-49 0 -88 12.5t-66 40t-41 71t-14 105.5v442h-68z" />
    <glyph glyph-name="dotlessi" unicode="&#x131;" horiz-adv-x="185" 
d="M61 0h63v516h-63v-516z" />
    <glyph glyph-name="circumflex" unicode="&#x2c6;" horiz-adv-x="185" 
d="M241 588l-114 141h-69l-113 -141h57l88 102l86 -102h65z" />
    <glyph glyph-name="tilde" unicode="&#x2dc;" horiz-adv-x="185" 
d="M249 708h-38q-6 -20 -17.5 -34t-34.5 -14q-14 0 -28.5 7t-31 15t-35.5 15t-40 7q-19 0 -34.5 -8.5t-27 -22t-18 -30.5t-8.5 -35h39q0 25 14.5 38t37.5 13q13 0 28 -7t32 -16t36 -16t39 -7t35 8.5t25.5 22t17 30.5t9.5 34z" />
    <glyph glyph-name="macron" unicode="&#xaf;" horiz-adv-x="185" 
d="M-71 634h328v45h-328v-45z" />
    <glyph glyph-name="breve" unicode="&#x2d8;" horiz-adv-x="185" 
d="M-11 722h-39q5 -61 42.5 -94t98.5 -33q60 0 98.5 33.5t46.5 93.5h-39q-6 -39 -37 -60.5t-69 -21.5q-19 0 -37 5t-32 15.5t-23 26t-10 35.5z" />
    <glyph glyph-name="dotaccent" unicode="&#x2d9;" horiz-adv-x="185" 
d="M59 605h68v101h-68v-101z" />
    <glyph glyph-name="ring" unicode="&#x2da;" horiz-adv-x="185" 
d="M25 677q0 29 19.5 48.5t48.5 19.5t48.5 -19.5t19.5 -48.5t-19.5 -48.5t-48.5 -19.5t-48.5 19.5t-19.5 48.5zM-13 677q0 -22 8 -41.5t22.5 -34t34 -23t41.5 -8.5t41.5 8.5t34 23t23 34t8.5 41.5t-8.5 41.5t-23 34t-34 23t-41.5 8.5t-41.5 -8.5t-34 -23t-22.5 -34t-8 -41.5
z" />
    <glyph glyph-name="cedilla" unicode="&#xb8;" horiz-adv-x="185" 
d="M126 0h-35l-61 -78l16 -15q18 8 51 8q17 0 30 -10t13 -28q0 -23 -16 -33t-37 -10q-22 0 -44 4.5t-35 9.5l-13 -32q21 -11 45 -16t48 -5q19 0 38.5 5t35.5 15.5t26 26.5t10 39t-11.5 37t-29 20.5t-37.5 7t-38 -2.5z" />
    <glyph glyph-name="hungarumlaut" unicode="&#x2dd;" horiz-adv-x="185" 
d="M123 588h51l126 141h-76zM-32 588h50l126 141h-76z" />
    <glyph glyph-name="ogonek" unicode="&#x2db;" horiz-adv-x="185" 
d="M189 2h-38q-38 -22 -60.5 -42.5t-34.5 -38t-15.5 -30t-3.5 -19.5q0 -36 21 -59t75 -23q26 0 49.5 15t45.5 52l-29 13q-8 -14 -22 -27.5t-33 -13.5q-17 0 -30.5 11.5t-13.5 35.5q0 13 3.5 26t13.5 28t27.5 33t44.5 39z" />
    <glyph glyph-name="caron" unicode="&#x2c7;" horiz-adv-x="185" 
d="M-55 729l113 -141h69l114 141h-58l-88 -102l-86 102h-64z" />
    <glyph glyph-name="Omega" unicode="&#x2126;" horiz-adv-x="756" 
d="M59 58h197v82q-47 13 -83.5 40t-62 63.5t-38.5 80.5t-13 92q0 67 25.5 123t69.5 96.5t102 63t123 22.5t122.5 -22.5t101 -63t69 -96.5t25.5 -122q0 -48 -13 -92.5t-38 -81t-61.5 -63.5t-84.5 -40v-82h197v-58h-251v182q45 8 79.5 28.5t58 51t35 69.5t11.5 84
q0 54 -19.5 99.5t-53 78.5t-79.5 51.5t-99 18.5t-99 -19t-80.5 -52t-54 -78.5t-19.5 -98.5q0 -44 11.5 -83.5t35 -70t58 -51.5t79.5 -28v-182h-251v58z" />
    <glyph glyph-name="currency" unicode="&#xa4;" 
d="M94 346q0 41 14.5 75.5t39.5 60t59 40t72 14.5t72 -14.5t59 -40t39.5 -60t14.5 -75.5q0 -40 -14.5 -75t-39.5 -60.5t-59 -40t-72 -14.5t-72 14.5t-59 40t-39.5 60.5t-14.5 75zM86 193l-57 -57l38 -38l56 56q32 -26 71.5 -41t84.5 -15t83.5 14.5t69.5 40.5l55 -55l38 38
l-54 54q26 32 41 71.5t15 84.5t-15 84.5t-41 71.5l54 54l-38 38l-55 -55q-32 26 -70 40.5t-83 14.5t-85 -15t-71 -41l-56 56l-38 -38l56 -56q-54 -66 -54 -154q0 -45 14.5 -83t40.5 -70z" />
    <glyph glyph-name="Lslash" unicode="&#x141;" horiz-adv-x="537" 
d="M72 714v-408l-81 -56v-56l81 57v-251h468v58h-400v240l243 167v56l-243 -168v361h-68z" />
    <glyph glyph-name="lslash" unicode="&#x142;" horiz-adv-x="185" 
d="M61 714v-319l-66 -55v-55l66 55v-340h63v392l67 55v55l-67 -55v267h-63z" />
    <glyph glyph-name="threequarters" unicode="&#xbe;" horiz-adv-x="834" 
d="M478 139l162 216h2v-216h-164zM642 100v-100h47v100h68v39h-68v284h-44l-213 -284v-39h210zM626 725l-453 -758h48l452 758h-47zM135 517v-39h35q45 0 77.5 -21t32.5 -63q0 -21 -10 -38t-26 -28.5t-37 -17.5t-42 -6q-54 0 -83 30t-27 78h-47q-5 -72 39 -109.5t119 -37.5
q33 0 62.5 8.5t51 25t34.5 41.5t13 57q0 42 -24.5 69.5t-69.5 33.5v2q37 8 57 33t20 60q0 29 -12 50t-32.5 34.5t-46.5 20t-54 6.5q-70 0 -108 -39.5t-39 -102.5h47q-1 45 25 74t75 29q39 0 68.5 -18.5t29.5 -57.5q0 -19 -8.5 -33t-22 -23t-30 -13.5t-32.5 -4.5h-35z" />
    <glyph glyph-name="onequarter" unicode="&#xbc;" horiz-adv-x="834" 
d="M478 139l162 216h2v-216h-164zM642 100v-100h47v100h68v39h-68v284h-44l-213 -284v-39h210zM48 623v-39h121v-310h47v423h-40q-5 -26 -15.5 -40.5t-26.5 -21.5t-37.5 -9t-48.5 -3zM586 725l-453 -758h48l452 758h-47z" />
    <glyph glyph-name="onesuperior" unicode="&#xb9;" horiz-adv-x="333" 
d="M35 623v-39h121v-310h47v423h-40q-5 -26 -15.5 -40.5t-26.5 -21.5t-37.5 -9t-48.5 -3z" />
    <glyph glyph-name="multiply" unicode="&#xd7;" horiz-adv-x="600" 
d="M74 440l188 -189l-188 -189l37 -37l189 188l189 -188l37 37l-189 189l189 189l-37 37l-189 -189l-189 189z" />
    <glyph glyph-name="Thorn" unicode="&#xde;" horiz-adv-x="630" 
d="M140 247v292h234q71 0 115 -36t44 -110t-44 -110t-115 -36h-234zM72 714v-714h68v189h249q48 0 87 13.5t67 40t43 64.5t15 86t-15 86t-43 64.5t-67 40t-87 13.5h-249v117h-68z" />
    <glyph glyph-name="brokenbar" unicode="&#xa6;" horiz-adv-x="222" 
d="M85 661v-250h53v250h-53zM85 161v-249h53v249h-53z" />
    <glyph glyph-name="Eth" unicode="&#xd0;" horiz-adv-x="685" 
d="M72 714v-321h-72v-45h72v-348h247q163 4 245.5 91.5t82.5 265.5t-82.5 265.5t-245.5 91.5h-247zM140 393v263h145q77 0 132.5 -16.5t91.5 -52.5t53 -93t17 -137t-17 -137t-53 -93t-91.5 -52.5t-132.5 -16.5h-145v290h236v45h-236z" />
    <glyph glyph-name="onehalf" unicode="&#xbd;" horiz-adv-x="834" 
d="M489 279h47q0 22 5 42.5t17 36.5t31 25.5t46 9.5q21 0 39.5 -5.5t32.5 -16t22.5 -25.5t8.5 -35q0 -26 -10 -44t-29 -36q-29 -27 -66.5 -48t-71 -45.5t-57 -56.5t-24.5 -81h302v39h-248q6 23 22 40.5t36 31.5t41 25.5t37 21.5q22 13 43 28t37 33t25.5 39.5t9.5 48.5
q0 64 -41.5 94.5t-104.5 30.5q-78 0 -115 -42t-35 -111zM48 623v-39h121v-310h47v423h-40q-5 -26 -15.5 -40.5t-26.5 -21.5t-37.5 -9t-48.5 -3zM586 725l-453 -758h48l452 758h-47z" />
    <glyph glyph-name="minus" unicode="&#x2212;" horiz-adv-x="600" 
d="M552 225v53h-503v-53h503z" />
    <glyph glyph-name="eth" unicode="&#xf0;" 
d="M235 652l-100 -56l33 -32l105 59q42 -33 75 -71t58 -86h-2q-22 23 -59 31.5t-74 8.5q-57 0 -101 -20.5t-74.5 -56t-46 -82t-15.5 -98.5q0 -56 14.5 -104t43.5 -83.5t74 -55.5t105 -20q63 0 109 21.5t76 58t45 86t15 106.5q0 65 -15 121.5t-41.5 105t-62 89.5t-77.5 75
l109 61l-33 32l-114 -64q-25 19 -51.5 34.5t-52.5 29.5l-36 -35q24 -12 47 -26t46 -29zM276 453q48 0 81.5 -17.5t54.5 -46.5t31 -65t10 -74q0 -46 -11.5 -85t-34 -67.5t-56 -44t-77.5 -15.5q-47 0 -80.5 17.5t-55 46.5t-31.5 67t-10 79t10 78.5t31.5 65.5t55.5 44.5
t82 16.5z" />
    <glyph glyph-name="thorn" unicode="&#xfe;" horiz-adv-x="574" 
d="M60 714v-904h63v288h2q10 -28 28.5 -49t42.5 -35t52 -21t56 -7q59 0 102.5 21.5t72.5 59t43 87t14 104.5t-14 104.5t-43 87t-72.5 59.5t-102.5 22q-28 0 -56 -7t-52 -21.5t-42.5 -35.5t-28.5 -49h-2v296h-63zM473 258q0 -40 -9.5 -79.5t-30 -70.5t-52.5 -50.5t-77 -19.5
q-50 0 -84.5 19.5t-56 50.5t-31 70.5t-9.5 79.5t9.5 79.5t31 70.5t56 50.5t84.5 19.5q45 0 77 -19.5t52.5 -50.5t30 -70.5t9.5 -79.5z" />
    <glyph glyph-name="twosuperior" unicode="&#xb2;" horiz-adv-x="333" 
d="M24 553h47q0 22 5 42.5t17 36.5t31 25.5t46 9.5q21 0 39.5 -5.5t32.5 -16t22.5 -25.5t8.5 -35q0 -26 -10 -44t-29 -36q-29 -27 -66.5 -48t-71 -45.5t-57 -56.5t-24.5 -81h302v39h-248q6 23 22 40.5t36 31.5t41 25.5t37 21.5q22 13 43 28t37 33t25.5 39.5t9.5 48.5
q0 64 -41.5 94.5t-104.5 30.5q-78 0 -115 -42t-35 -111z" />
    <glyph glyph-name="threesuperior" unicode="&#xb3;" horiz-adv-x="333" 
d="M135 517v-39h35q45 0 77.5 -21t32.5 -63q0 -21 -10 -38t-26 -28.5t-37 -17.5t-42 -6q-54 0 -83 30t-27 78h-47q-5 -72 39 -109.5t119 -37.5q33 0 62.5 8.5t51 25t34.5 41.5t13 57q0 42 -24.5 69.5t-69.5 33.5v2q37 8 57 33t20 60q0 29 -12 50t-32.5 34.5t-46.5 20
t-54 6.5q-70 0 -108 -39.5t-39 -102.5h47q-1 45 25 74t75 29q39 0 68.5 -18.5t29.5 -57.5q0 -19 -8.5 -33t-22 -23t-30 -13.5t-32.5 -4.5h-35z" />
    <glyph glyph-name="Scaron" unicode="&#x160;" horiz-adv-x="630" 
d="M167 912l114 -141h69l114 141h-58l-88 -102l-86 102h-65zM104 235h-68q-3 -66 17.5 -113t58.5 -77t92 -44.5t117 -14.5t108 11.5t75.5 30t48 41.5t27 45.5t12 42.5t2.5 32q0 44 -14.5 75t-40 52.5t-59 36t-71.5 24.5l-174 43q-22 5 -41.5 13t-34.5 21t-23.5 31.5
t-8.5 43.5q0 40 15 67t39.5 43.5t57 24t67.5 7.5q38 0 72.5 -10.5t61 -31t43 -51t18.5 -71.5h68q0 55 -21.5 96.5t-57.5 69.5t-84 42t-101 14q-75 0 -123 -21.5t-75.5 -52.5t-37.5 -66t-10 -61q0 -42 13.5 -71t35.5 -49t51.5 -32t60.5 -20l159 -39q25 -6 51 -15.5
t47.5 -24.5t35 -37t13.5 -52q0 -39 -19 -66.5t-47.5 -45t-61.5 -25.5t-61 -8q-49 0 -92 9.5t-74.5 31.5t-49.5 59t-17 92z" />
    <glyph glyph-name="Yacute" unicode="&#xdd;" horiz-adv-x="611" 
d="M297 771l132 141h-78l-105 -141h51zM271 294v-294h68v294l282 420h-81l-234 -362l-235 362h-80z" />
    <glyph glyph-name="Zcaron" unicode="&#x17d;" horiz-adv-x="574" 
d="M139 912l114 -141h69l114 141h-58l-88 -102l-86 102h-65zM37 714v-58h438l-470 -596v-60h556v58h-480l470 596v60h-514z" />
    <glyph glyph-name="scaron" unicode="&#x161;" horiz-adv-x="481" 
d="M92 729l114 -141h69l114 141h-58l-88 -102l-86 102h-65zM369 365h63q-2 42 -17 73t-40.5 52t-59 31t-72.5 10q-34 0 -68.5 -8t-62.5 -25t-45.5 -45t-17.5 -67q0 -33 11 -55.5t30.5 -38t45.5 -26t57 -18.5l81 -18q21 -5 41.5 -12t36.5 -17.5t25.5 -26t9.5 -38.5
q0 -27 -13.5 -45.5t-34.5 -30.5t-45.5 -17t-47.5 -5q-63 0 -105.5 32.5t-46.5 96.5h-63q8 -95 64.5 -138t147.5 -43q36 0 73 8t66.5 26.5t48.5 48t19 71.5q0 34 -13 59t-33.5 42t-47 27.5t-53.5 14.5l-84 19q-16 4 -35 10.5t-35 16.5t-26.5 24.5t-10.5 35.5q0 25 11 42
t29 27.5t39.5 15t42.5 4.5q27 0 51 -6.5t42.5 -20.5t29.5 -35.5t12 -50.5z" />
    <glyph glyph-name="yacute" unicode="&#xfd;" horiz-adv-x="463" 
d="M223 588l132 141h-78l-105 -141h51zM2 516l206 -514l-22 -58q-8 -18 -15 -33t-17 -25.5t-23.5 -16.5t-34.5 -6q-11 0 -21.5 1.5t-21.5 3.5v-53q8 -3 18.5 -3.5t29.5 -1.5q30 0 49.5 5.5t34 18t26.5 34t26 54.5l224 594h-63l-159 -440l-170 440h-67z" />
    <glyph glyph-name="zcaron" unicode="&#x17e;" horiz-adv-x="463" 
d="M83 729l114 -141h69l114 141h-58l-88 -102l-86 102h-65zM91 53l341 418v45h-394v-53h314l-337 -412v-51h431v53h-355z" />
    <glyph glyph-name="gravecmb" unicode="&#x300;" horiz-adv-x="0" 
d="M-137 729l105 -141h-51l-131 141h77z" />
    <glyph glyph-name="acutecmb" unicode="&#x301;" horiz-adv-x="0" 
d="M-151 588l105 141h78l-132 -141h-51z" />
    <glyph glyph-name="circumflexcmb" unicode="&#x302;" horiz-adv-x="0" 
d="M-8 588l-86 102l-88 -102h-57l113 141h69l114 -141h-65z" />
    <glyph glyph-name="tildecmb" unicode="&#x303;" horiz-adv-x="0" 
d="M65 708q-3 -17 -9.5 -34t-17 -30.5t-25.5 -22t-35 -8.5t-39 7t-36 16t-32 16t-28 7q-23 0 -37.5 -13t-14.5 -38h-39q2 18 8.5 35t18 30.5t27 22t34.5 8.5q21 0 40 -7t35.5 -15t31 -15t28.5 -7q23 0 34.5 14t17.5 34h38v0z" />
    <glyph glyph-name="macroncmb" unicode="&#x304;" horiz-adv-x="0" 
d="M-255 679h328v-45h-328v45z" />
    <glyph glyph-name="brevecmb" unicode="&#x306;" horiz-adv-x="0" 
d="M-195 722q1 -20 10 -35.5t23 -26t32 -15.5t37 -5q38 0 69 21.5t37 60.5h39q-8 -60 -46.5 -93.5t-98.5 -33.5q-61 0 -98.5 33t-42.5 94h39v0z" />
    <glyph glyph-name="dotaccentcmb" unicode="&#x307;" horiz-adv-x="0" 
d="M-125 706h68v-101h-68v101z" />
    <glyph glyph-name="dieresiscmb" unicode="&#x308;" horiz-adv-x="0" 
d="M-213 706h67v-101h-67v101zM-37 706h68v-101h-68v101z" />
    <glyph glyph-name="ringcmb" unicode="&#x30a;" horiz-adv-x="0" 
d="M-159 677q0 -29 19.5 -48.5t48.5 -19.5t48.5 19.5t19.5 48.5t-19.5 48.5t-48.5 19.5t-48.5 -19.5t-19.5 -48.5zM-197 677q0 22 8 41.5t22.5 34t34 23t41.5 8.5t41.5 -8.5t34 -23t23 -34t8.5 -41.5t-8.5 -41.5t-23 -34t-34 -23t-41.5 -8.5t-41.5 8.5t-34 23t-22.5 34
t-8 41.5z" />
    <glyph glyph-name="hungarumlautcmb" unicode="&#x30b;" horiz-adv-x="0" 
d="M40 729h76l-126 -141h-51zM-116 729h76l-126 -141h-50z" />
    <glyph glyph-name="caroncmb" unicode="&#x30c;" horiz-adv-x="0" 
d="M-175 729l86 -102l88 102h58l-114 -141h-69l-113 141h64z" />
    <glyph glyph-name="cedillacmb" unicode="&#x327;" horiz-adv-x="0" 
d="M-102 -57q18 3 38 2.5t37.5 -7t29 -20.5t11.5 -37t-10 -39t-26 -26.5t-35.5 -15.5t-38.5 -5q-24 0 -48 5t-45 16l13 32q13 -5 35 -9.5t44 -4.5q21 0 37 10t16 33q0 18 -13 28t-30 10q-33 0 -51 -8l-16 15l61 78h35z" />
    <glyph glyph-name="ogonekcmb" unicode="&#x328;" horiz-adv-x="0" 
d="M5 2q-27 -21 -44.5 -39t-27.5 -33t-13.5 -28t-3.5 -26q0 -24 13.5 -35.5t30.5 -11.5q19 0 33 13.5t22 27.5l29 -13q-22 -37 -45.5 -52t-49.5 -15q-54 0 -75 23t-21 59q0 7 3.5 19.5t15.5 30t34.5 38t60.5 42.5h38v0z" />
    <glyph glyph-name="soliduslongoverlaycmb" unicode="&#x338;" horiz-adv-x="0" 
d="M-37 729h51l-305 -743h-53z" />
    <glyph glyph-name="FL295" horiz-adv-x="0" 
 />
    <glyph glyph-name="cyrbreve" horiz-adv-x="185" 
d="M90 592q63 0 99 33.5t47 96.5h-39q-8 -39 -35.5 -60.5t-70.5 -21.5q-45 0 -71.5 22t-31.5 60h-39q8 -63 43 -96.5t98 -33.5z" />
    <glyph glyph-name="cyrBreve" horiz-adv-x="185" 
d="M90 773q63 0 99 33.5t47 96.5h-39q-8 -39 -35.5 -60.5t-70.5 -21.5q-45 0 -71.5 22t-31.5 60h-39q8 -63 43 -96.5t98 -33.5z" />
    <glyph glyph-name="uni018F" unicode="&#x18f;" horiz-adv-x="712" 
d="M351 671q-39 0 -75.5 -13.5t-67 -37t-53 -55t-33.5 -67.5h-68q11 53 39.5 96t69 73t89 46t99.5 16q88 0 150.5 -30.5t101.5 -82t57 -119t18 -140.5q0 -74 -20 -141t-61 -118t-103.5 -81.5t-146.5 -30.5q-69 0 -126.5 25t-99 74.5t-64.5 123t-23 170.5h575q-3 55 -17 108
t-44 93.5t-78 65.5t-119 25zM347 43q65 0 112.5 23t79.5 62t48.5 89t20.5 104h-502q0 -54 17.5 -104t49.5 -89t76.5 -62t97.5 -23z" />
    <glyph glyph-name="uni01A2" unicode="&#x1a2;" horiz-adv-x="713" 
d="M573 656h-68v-645q-61 -25 -134 -25q-84 0 -147.5 30.5t-105.5 81.5t-63 118t-21 141q0 73 21 140.5t63 119t105.5 82t147.5 30.5q58 0 106 -15h164v-904h-68v846zM371 43q38 0 66 7v614q-28 7 -66 7q-71 0 -122 -27t-83.5 -71.5t-48 -101t-15.5 -114.5q0 -59 15.5 -115
t48 -100.5t83.5 -71.5t122 -27z" />
    <glyph glyph-name="uni01A3" unicode="&#x1a3;" horiz-adv-x="575" 
d="M453 463h-63v-452q-47 -25 -112 -25q-59 0 -104.5 21.5t-76.5 58.5t-47 86.5t-16 105.5q0 55 16 105t47 87t76.5 59t104.5 22q24 0 45.5 -4t41.5 -11h151v-706h-63v653zM278 38q13 0 25.5 2t23.5 5v426q-21 7 -49 7q-45 0 -79 -19t-56.5 -50t-34 -70.5t-11.5 -80.5
t11.5 -80.5t34 -70.5t56.5 -50t79 -19z" />
    <glyph glyph-name="uni01B5" unicode="&#x1b5;" horiz-adv-x="574" 
d="M5 60l221 280h-156v58h201l204 258h-438v58h514v-60l-202 -256h164v-58h-210l-222 -282h480v-58h-556v60z" />
    <glyph glyph-name="uni01B6" unicode="&#x1b6;" horiz-adv-x="463" 
d="M15 51l158 193h-97v53h140l136 166h-314v53h394v-45l-142 -174h103v-53h-146l-156 -191h355v-53h-431v51z" />
    <glyph glyph-name="uni0259" unicode="&#x259;" horiz-adv-x="529" 
d="M262 -13q-62 0 -106.5 25t-72.5 65.5t-40.5 93t-10.5 106.5h400q0 34 -9.5 70.5t-30.5 65.5t-53 48t-77 19q-69 0 -108 -36t-54 -96h-63q20 88 73.5 136t151.5 48q61 0 105.5 -21.5t72.5 -59t41.5 -87t13.5 -104.5q0 -51 -13.5 -100t-41.5 -87.5t-72.5 -62t-105.5 -23.5z
M262 40q39 0 69 15.5t51 41t33.5 59t16.5 68.5h-334q1 -36 12.5 -69t32.5 -58.5t51 -41t68 -15.5z" />
    <glyph glyph-name="uni0400" unicode="&#x400;" horiz-adv-x="593" 
d="M72 714h493v-58h-425v-258h398v-58h-398v-282h430v-58h-498v714zM282 912l105 -141h-51l-131 141h77z" />
    <glyph glyph-name="afii10023" unicode="&#x401;" horiz-adv-x="593" 
d="M72 714h493v-58h-425v-258h398v-58h-398v-282h430v-58h-498v714zM204 889h67v-101h-67v101zM380 889h68v-101h-68v101z" />
    <glyph glyph-name="afii10051" unicode="&#x402;" horiz-adv-x="766" 
d="M471 -10q-14 0 -28.5 1t-29.5 3v59q11 -1 22 -1.5t21 -0.5q100 0 148 47.5t48 135.5q0 82 -51 123.5t-132 41.5q-87 0 -132 -53.5t-45 -156.5v-189h-68v656h-229v58h566v-58h-269v-303h3q12 26 33 45.5t47 32t55 19t58 6.5q52 0 95 -14.5t74 -43t47.5 -70t16.5 -95.5
q0 -59 -18 -104.5t-50.5 -76t-78.5 -46.5t-103 -16z" />
    <glyph glyph-name="afii10052" unicode="&#x403;" horiz-adv-x="514" 
d="M78 714h441v-58h-373v-656h-68v714zM238 771l105 141h78l-132 -141h-51z" />
    <glyph glyph-name="afii10053" unicode="&#x404;" horiz-adv-x="695" 
d="M366 -14q-74 0 -135 26t-105 74.5t-68 116.5t-24 152q0 75 21.5 143t63.5 119t104 81.5t143 30.5q51 0 101 -15.5t90 -45.5t67 -73t33 -97h-68q-17 81 -77 127t-148 46q-55 0 -100.5 -19.5t-79.5 -55.5t-55 -86.5t-26 -112.5h376v-57h-378q2 -68 22 -123t54.5 -93.5
t82.5 -59.5t106 -21q50 0 89.5 15t68 42.5t46.5 65t26 82.5h67q-9 -61 -33.5 -109.5t-62.5 -82.5t-89 -52t-112 -18z" />
    <glyph glyph-name="afii10054" unicode="&#x405;" horiz-adv-x="630" 
d="M321 -14q-63 0 -117 14.5t-92 44.5t-58.5 77t-17.5 113h68q-1 -55 17 -92t49.5 -59t74.5 -31.5t92 -9.5q28 0 61 8t61.5 25.5t47.5 45t19 66.5q0 30 -13.5 52t-35 37t-47.5 24.5t-51 15.5l-159 39q-32 8 -61 20.5t-51 32t-35.5 48.5t-13.5 71q0 26 10 61t37.5 66
t75.5 52.5t123 21.5q53 0 101 -14t84 -42t57.5 -69.5t21.5 -96.5h-68q-2 40 -18.5 71t-43 51.5t-61 31t-72.5 10.5q-35 0 -67.5 -7.5t-57 -24t-39.5 -43.5t-15 -67q0 -26 8.5 -44t23.5 -31t34.5 -21t41.5 -13l174 -43q38 -10 71.5 -24.5t59 -36t40 -53t14.5 -74.5
q0 -12 -2.5 -32t-12 -42.5t-27 -45.5t-48 -41.5t-75.5 -30t-108 -11.5z" />
    <glyph glyph-name="afii10055" unicode="&#x406;" horiz-adv-x="222" 
d="M77 714h68v-714h-68v714z" />
    <glyph glyph-name="afii10056" unicode="&#x407;" horiz-adv-x="222" 
d="M77 714h68v-714h-68v714zM-11 889h67v-101h-67v101zM165 889h68v-101h-68v101z" />
    <glyph glyph-name="afii10057" unicode="&#x408;" horiz-adv-x="500" 
d="M220 -14q-62 0 -100.5 20.5t-60.5 54t-30 77.5t-8 91h68q1 -23 3 -55t14 -61t39.5 -49.5t80.5 -20.5q40 0 66 10.5t41 33t21 57.5t6 84v486h68v-515q0 -55 -11 -95t-35.5 -66.5t-64 -39t-97.5 -12.5z" />
    <glyph glyph-name="afii10058" unicode="&#x409;" horiz-adv-x="1122" 
d="M54 -6q-6 0 -14.5 1t-17.5 2t-16 2.5t-10 2.5v58q8 -4 24.5 -5.5t24.5 -1.5q11 0 26 2.5t31.5 18t33 49t29 96t20.5 158.5t8 236v101h439v-302h249q100 0 156 -55t56 -151t-56 -151t-156 -55h-317v656h-305v-39q0 -156 -10 -262.5t-27 -176t-38.5 -107t-44 -54.5t-45 -20
t-40.5 -3zM866 58q75 0 117 39.5t42 108.5t-42 108.5t-117 39.5h-234v-296h234z" />
    <glyph glyph-name="afii10059" unicode="&#x40a;" horiz-adv-x="1122" 
d="M72 714h68v-302h424v302h68v-302h249q100 0 156 -55t56 -151t-56 -151t-156 -55h-317v354h-424v-354h-68v714zM866 58q75 0 117 39.5t42 108.5t-42 108.5t-117 39.5h-234v-296h234z" />
    <glyph glyph-name="afii10060" unicode="&#x40b;" horiz-adv-x="766" 
d="M224 656h-229v58h566v-58h-269v-243q14 7 38 14.5t51 14t54.5 10.5t48.5 4q75 0 119 -18.5t67 -48t29.5 -66t6.5 -72.5v-251h-68v247q0 22 -4 48t-20 48.5t-46.5 38t-84.5 15.5q-20 0 -47 -4t-54 -10.5t-51 -14.5t-39 -17v-351h-68v656z" />
    <glyph glyph-name="afii10061" unicode="&#x40c;" horiz-adv-x="648" 
d="M72 714h68v-384l415 384h92l-319 -295l334 -419h-88l-297 372l-137 -127v-245h-68v714zM282 771l105 141h78l-132 -141h-51z" />
    <glyph glyph-name="uni040D" unicode="&#x40d;" horiz-adv-x="710" 
d="M72 714h68v-641l410 641h88v-714h-68v641l-410 -641h-88v714zM292 912l105 -141h-51l-131 141h77z" />
    <glyph glyph-name="afii10062" unicode="&#x40e;" horiz-adv-x="588" 
d="M138 -8q26 0 48.5 4.5t44 19.5t42.5 42.5t43 73.5l281 582h-72l-226 -474l-232 474h-73l265 -546l-9 -19q-24 -51 -49.5 -75t-63.5 -24q-24 0 -42 3.5t-31 8.5v-60q11 -4 30.5 -7t43.5 -3zM307 773q63 0 99 33.5t47 96.5h-39q-8 -39 -35.5 -60.5t-70.5 -21.5
q-45 0 -71.5 22t-31.5 60h-39q8 -63 43 -96.5t98 -33.5z" />
    <glyph glyph-name="afii10145" unicode="&#x40f;" horiz-adv-x="694" 
d="M313 0h-241v714h68v-656h414v656h68v-714h-241v-190h-68v190z" />
    <glyph glyph-name="afii10017" unicode="&#x410;" horiz-adv-x="630" 
d="M281 714h76l280 -714h-73l-87 222h-325l-86 -222h-72zM454 280l-138 366l-143 -366h281z" />
    <glyph glyph-name="afii10018" unicode="&#x411;" horiz-adv-x="667" 
d="M72 714h493v-58h-425v-244h269q100 0 156 -55t56 -151t-56 -151t-156 -55h-337v714zM394 58q75 0 117 39.5t42 108.5t-42 108.5t-117 39.5h-254v-296h254z" />
    <glyph glyph-name="afii10019" unicode="&#x412;" horiz-adv-x="667" 
d="M72 714h302q45 0 86.5 -8.5t73 -29t50.5 -54t19 -83.5q0 -28 -9 -54.5t-25.5 -48t-39 -36.5t-50.5 -21v-2q69 -9 110 -56.5t41 -117.5q0 -26 -7.5 -60.5t-33.5 -66.5t-77 -54t-138 -22h-302v714zM374 58q38 0 72 6.5t60 23.5t41 45t15 72q0 69 -48.5 103.5t-139.5 34.5
h-234v-285h234zM374 401q40 0 70.5 9.5t50.5 26t30 38.5t10 47q0 134 -161 134h-234v-255h234z" />
    <glyph glyph-name="afii10020" unicode="&#x413;" horiz-adv-x="514" 
d="M78 714h441v-58h-373v-656h-68v714z" />
    <glyph glyph-name="afii10021" unicode="&#x414;" horiz-adv-x="716" 
d="M0 58h75q38 70 59 143.5t31.5 146.5t13 142t2.5 130v94h442v-656h85v-248h-68v190h-572v-190h-68v248zM555 58v598h-306v-24q0 -60 -1.5 -130.5t-11.5 -145.5t-30.5 -151t-58.5 -147h408z" />
    <glyph glyph-name="afii10022" unicode="&#x415;" horiz-adv-x="593" 
d="M72 714h493v-58h-425v-258h398v-58h-398v-282h430v-58h-498v714z" />
    <glyph glyph-name="afii10024" unicode="&#x416;" horiz-adv-x="990" 
d="M313 406l-296 308h92l352 -376v376h68v-376l352 376h92l-296 -308l321 -406h-88l-281 356l-100 -104v-252h-68v252l-100 104l-281 -356h-88z" />
    <glyph glyph-name="afii10025" unicode="&#x417;" horiz-adv-x="627" 
d="M324 -15q-66 0 -119 16.5t-89.5 48t-56 77t-19.5 102.5v6h65q0 -99 61 -147t163 -48q45 0 81 13.5t60.5 36.5t38 53.5t13.5 64.5q0 31 -12.5 56.5t-34.5 43.5t-51.5 28t-63.5 10h-114v58h114q28 0 54 8t46 23.5t31.5 39t11.5 54.5q0 37 -13.5 64t-36.5 44.5t-55 26
t-68 8.5q-42 0 -78 -10t-62.5 -30.5t-42 -51t-18.5 -70.5h-66q3 55 23.5 96t55.5 68.5t82.5 41t103.5 13.5q50 0 94.5 -11.5t77.5 -35.5t52 -60.5t19 -86.5q0 -28 -9 -52.5t-24 -44t-34 -33.5t-38 -21v-3q57 -15 90.5 -57.5t33.5 -114.5q0 -33 -13.5 -72t-44.5 -73
t-82 -56.5t-126 -22.5z" />
    <glyph glyph-name="afii10026" unicode="&#x418;" horiz-adv-x="710" 
d="M72 714h68v-641l410 641h88v-714h-68v641l-410 -641h-88v714z" />
    <glyph glyph-name="afii10027" unicode="&#x419;" horiz-adv-x="710" 
d="M72 0h88l410 641v-641h68v714h-88l-410 -641v641h-68v-714zM349 773q63 0 99 33.5t47 96.5h-39q-8 -39 -35.5 -60.5t-70.5 -21.5q-45 0 -71.5 22t-31.5 60h-39q8 -63 43 -96.5t98 -33.5z" />
    <glyph glyph-name="afii10028" unicode="&#x41a;" horiz-adv-x="648" 
d="M72 714h68v-384l415 384h92l-319 -295l334 -419h-88l-297 372l-137 -127v-245h-68v714z" />
    <glyph glyph-name="afii10029" unicode="&#x41b;" horiz-adv-x="704" 
d="M54 -6q-6 0 -14.5 1t-17.5 2t-16 2.5t-10 2.5v58q8 -4 24.5 -5.5t24.5 -1.5q11 0 26 2.5t31.5 18t33 49t29 96t20.5 158.5t8 236v101h439v-714h-68v656h-305v-39q0 -156 -10 -262.5t-27 -176t-38.5 -107t-44 -54.5t-45 -20t-40.5 -3z" />
    <glyph glyph-name="afii10030" unicode="&#x41c;" horiz-adv-x="833" 
d="M70 714h100l247 -626l246 626h100v-714h-68v617h-2l-244 -617h-64l-245 617h-2v-617h-68v714z" />
    <glyph glyph-name="afii10031" unicode="&#x41d;" horiz-adv-x="704" 
d="M72 714h68v-310h424v310h68v-714h-68v346h-424v-346h-68v714z" />
    <glyph glyph-name="afii10032" unicode="&#x41e;" horiz-adv-x="741" 
d="M371 -14q-84 0 -147.5 30.5t-105.5 81.5t-63 118t-21 141q0 73 21 140.5t63 119t105.5 82t147.5 30.5t147 -30.5t105 -82t63 -119t21 -140.5q0 -74 -21 -141t-63 -118t-105 -81.5t-147 -30.5zM371 43q70 0 121 27t83.5 71.5t48 100.5t15.5 115q0 58 -15.5 114.5t-48 101
t-83.5 71.5t-121 27q-71 0 -122 -27t-83.5 -71.5t-48 -101t-15.5 -114.5q0 -59 15.5 -115t48 -100.5t83.5 -71.5t122 -27z" />
    <glyph glyph-name="afii10033" unicode="&#x41f;" horiz-adv-x="694" 
d="M72 714h550v-714h-68v656h-414v-656h-68v714z" />
    <glyph glyph-name="afii10034" unicode="&#x420;" horiz-adv-x="630" 
d="M72 714h317q48 0 87 -13.5t67 -40t43 -64.5t15 -86t-15 -86t-43 -64.5t-67 -40t-87 -13.5h-249v-306h-68v714zM374 364q71 0 115 36t44 110t-44 110t-115 36h-234v-292h234z" />
    <glyph glyph-name="afii10035" unicode="&#x421;" horiz-adv-x="704" 
d="M375 -14q-84 0 -147.5 30.5t-105.5 81.5t-63 118t-21 141q0 73 21 140.5t63 119t105.5 82t147.5 30.5q51 0 99.5 -15t88 -44.5t66 -72.5t33.5 -99h-68q-9 41 -29.5 73.5t-50 54.5t-65 33.5t-74.5 11.5q-71 0 -122 -27t-83.5 -71.5t-48 -101t-15.5 -114.5q0 -59 15.5 -115
t48 -100.5t83.5 -71.5t122 -27q49 0 89.5 18t69.5 49t47 72.5t23 89.5h68q-7 -66 -31 -119t-62 -90t-89.5 -57t-114.5 -20z" />
    <glyph glyph-name="afii10036" unicode="&#x422;" 
d="M244 656h-248v58h565v-58h-249v-656h-68v656z" />
    <glyph glyph-name="afii10037" unicode="&#x423;" horiz-adv-x="588" 
d="M138 -8q-24 0 -43.5 3t-30.5 7v60q13 -5 31 -8.5t42 -3.5q38 0 63.5 24t49.5 75l9 19l-265 546h73l232 -474l226 474h72l-281 -582q-22 -46 -43 -73.5t-42.5 -42.5t-44 -19.5t-48.5 -4.5z" />
    <glyph glyph-name="afii10038" unicode="&#x424;" horiz-adv-x="800" 
d="M366 66q-78 1 -140 22t-105.5 59.5t-67 93t-23.5 122.5q0 66 23 120t66.5 92.5t105.5 60t141 23.5v76h68v-76q79 -2 141 -23.5t105.5 -60t66.5 -92.5t23 -120q0 -68 -23.5 -122.5t-67 -93t-105.5 -59.5t-140 -22v-90h-68v90zM366 603q-135 -6 -202 -67t-67 -173
q0 -111 68 -172.5t201 -69.5v482zM434 121q133 8 201 69.5t68 172.5q0 112 -67 173t-202 67v-482z" />
    <glyph glyph-name="afii10039" unicode="&#x425;" horiz-adv-x="574" 
d="M245 368l-242 346h80l202 -299l209 299h76l-244 -348l258 -366h-82l-217 315l-220 -315h-76z" />
    <glyph glyph-name="afii10040" unicode="&#x426;" horiz-adv-x="715" 
d="M639 0h-567v714h68v-656h414v656h68v-656h85v-248h-68v190z" />
    <glyph glyph-name="afii10041" unicode="&#x427;" horiz-adv-x="630" 
d="M490 325q-15 -4 -42 -9t-58.5 -9.5t-63 -8t-55.5 -3.5q-77 0 -122.5 18.5t-69.5 48t-31 66t-7 72.5v214h68v-210q0 -22 4 -48t20 -48.5t46.5 -38t84.5 -15.5q32 0 66.5 3.5t65.5 8t55.5 9.5t38.5 8v331h68v-714h-68v325z" />
    <glyph glyph-name="afii10042" unicode="&#x428;" horiz-adv-x="1024" 
d="M72 714h68v-656h338v656h68v-656h338v656h68v-714h-880v714z" />
    <glyph glyph-name="afii10043" unicode="&#x429;" horiz-adv-x="1045" 
d="M969 0h-897v714h68v-656h338v656h68v-656h338v656h68v-656h85v-248h-68v190z" />
    <glyph glyph-name="afii10044" unicode="&#x42a;" horiz-adv-x="769" 
d="M211 656h-216v58h284v-302h249q100 0 156 -55t56 -151t-56 -151t-156 -55h-317v656zM513 58q75 0 117 39.5t42 108.5t-42 108.5t-117 39.5h-234v-296h234z" />
    <glyph glyph-name="afii10045" unicode="&#x42b;" horiz-adv-x="846" 
d="M72 714h68v-302h249q100 0 156 -55t56 -151t-56 -151t-156 -55h-317v714zM374 58q75 0 117 39.5t42 108.5t-42 108.5t-117 39.5h-234v-296h234zM706 714h68v-714h-68v714z" />
    <glyph glyph-name="afii10046" unicode="&#x42c;" horiz-adv-x="630" 
d="M72 714h68v-302h249q100 0 156 -55t56 -151t-56 -151t-156 -55h-317v714zM374 58q75 0 117 39.5t42 108.5t-42 108.5t-117 39.5h-234v-296h234z" />
    <glyph glyph-name="afii10047" unicode="&#x42d;" horiz-adv-x="695" 
d="M331 -14q-62 0 -113 18t-89 52t-63 82.5t-34 109.5h67q8 -45 26 -82.5t47 -65t68.5 -42.5t89.5 -15q58 0 105.5 21t82 59.5t54.5 93.5t22 123h-363v57h361q-5 62 -26 112.5t-55 86.5t-79.5 55.5t-100.5 19.5q-88 0 -148 -46t-77 -127h-68q6 54 33 97t67 73t90 45.5
t101 15.5q81 0 143 -30.5t104 -81.5t63.5 -119t21.5 -143q0 -84 -24 -152t-67.5 -116.5t-104 -74.5t-134.5 -26z" />
    <glyph glyph-name="afii10048" unicode="&#x42e;" horiz-adv-x="980" 
d="M620 -14q-79 0 -139 29t-101.5 78.5t-63 114t-23.5 136.5h-153v-344h-68v714h68v-312h155q6 66 29.5 125.5t64.5 104.5t98.5 71t132.5 26q80 0 141 -30.5t102 -82t62 -119t21 -140.5q0 -74 -21 -141t-62 -118t-102 -81.5t-141 -30.5zM620 43q67 0 115.5 27t80 71.5
t47 100.5t15.5 115q0 58 -15.5 114.5t-47 101t-80 71.5t-115.5 27t-116 -27t-80.5 -71.5t-47 -101t-15.5 -114.5q0 -59 15.5 -115t47 -100.5t80.5 -71.5t116 -27z" />
    <glyph glyph-name="afii10049" unicode="&#x42f;" horiz-adv-x="630" 
d="M248 310q-44 2 -81.5 16t-65 39t-43 60.5t-15.5 82.5q0 48 15 86t43.5 64.5t68 41t89.5 14.5h299v-714h-68v306h-160l-238 -306h-88zM490 364v292h-216q-75 0 -119 -39.5t-44 -108.5t44 -106.5t119 -37.5h216z" />
    <glyph glyph-name="afii10065" unicode="&#x430;" horiz-adv-x="519" 
d="M205 -14q-36 0 -67.5 8.5t-55 27t-37 47t-13.5 67.5q0 54 24 84.5t63.5 46.5t89 22.5t100.5 12.5q19 2 34.5 5t25.5 10.5t15.5 20.5t5.5 34q0 32 -10.5 52.5t-29 32.5t-43 16.5t-52.5 4.5q-60 0 -98 -28.5t-40 -91.5h-63q6 91 62.5 132t146.5 41q34 0 68 -6.5t61 -24.5
t44 -50.5t17 -84.5v-274q0 -38 37 -38q12 0 20 4v-53q-11 -2 -19.5 -3t-21.5 -1q-24 0 -38.5 6.5t-22.5 18.5t-10.5 28.5t-2.5 36.5h-2q-17 -25 -34.5 -44.5t-39 -32.5t-49.5 -20t-65 -7zM210 38q36 0 69 11t57.5 32t39 51t14.5 68v82h-2q-6 -11 -23 -16t-30 -7
q-40 -7 -82.5 -12.5t-77.5 -16.5t-57.5 -32t-22.5 -58q0 -24 9.5 -42.5t25.5 -32t36.5 -20.5t43.5 -7z" />
    <glyph glyph-name="afii10066" unicode="&#x431;" 
d="M283 -14q-71 0 -117 26t-73 69t-38 99t-11 116q0 37 3 77.5t10.5 80t19.5 75.5t31 65q35 54 84 77t123 28l48 3q40 2 54 8t20 19h70q-8 -46 -40.5 -62.5t-98.5 -20.5l-76 -5q-88 -6 -134 -63t-63 -177h3q26 52 77 83.5t114 31.5q52 0 94.5 -18t73.5 -52t48 -83t17 -110
q0 -60 -17 -109.5t-48.5 -84.5t-75.5 -54t-98 -19zM283 38q38 0 70.5 15.5t56 44t36.5 68t13 87.5q0 47 -13 86t-36.5 66.5t-55 43t-68.5 15.5q-40 0 -73 -15t-56.5 -42.5t-36.5 -66.5t-13 -87t13 -87.5t36.5 -68t56 -44t70.5 -15.5z" />
    <glyph glyph-name="afii10067" unicode="&#x432;" horiz-adv-x="517" 
d="M59 516h236q79 0 122 -31t43 -91q0 -46 -23.5 -77t-65.5 -43v-2q51 -9 80 -40t29 -88q0 -70 -47 -107t-138 -37h-236v516zM288 53q66 0 97.5 24.5t31.5 73.5q0 45 -31.5 69t-97.5 24h-166v-191h166zM288 293q54 0 81.5 23t27.5 62q0 85 -109 85h-166v-170h166z" />
    <glyph glyph-name="afii10068" unicode="&#x433;" horiz-adv-x="400" 
d="M65 516h341v-53h-278v-463h-63v516z" />
    <glyph glyph-name="afii10069" unicode="&#x434;" horiz-adv-x="570" 
d="M6 53h61q37 69 54 164t17 231v68h347v-463h77v-217h-63v164h-430v-164h-63v217zM422 53v410h-223v-36q0 -130 -19 -223.5t-48 -150.5h290z" />
    <glyph glyph-name="afii10070" unicode="&#x435;" horiz-adv-x="519" 
d="M267 -14q-62 0 -106 21.5t-72 59t-41.5 86.5t-13.5 105q0 51 13.5 100t41.5 87.5t72 62t106 23.5t106 -25t71.5 -65.5t39.5 -93t10 -106.5h-397q0 -35 9.5 -71t30.5 -65t53 -48t77 -19q69 0 108 36t54 96h63q-20 -88 -73.5 -136t-151.5 -48zM431 294q-1 36 -12.5 69
t-32.5 58.5t-51 41t-68 15.5q-39 0 -69 -15.5t-51 -41t-33.5 -59t-16.5 -68.5h334z" />
    <glyph glyph-name="afii10072" unicode="&#x436;" horiz-adv-x="737" 
d="M216 300l-201 216h85l237 -264v264h63v-263l237 263h85l-201 -216l223 -300h-77l-190 258l-77 -80v-178h-63v178l-77 80l-190 -258h-77z" />
    <glyph glyph-name="afii10073" unicode="&#x437;" horiz-adv-x="485" 
d="M241 -14q-103 0 -155.5 47.5t-57.5 128.5h63q4 -28 14 -51t28 -39t44.5 -24.5t64.5 -8.5q43 0 70 10t42.5 26.5t21.5 36.5t6 40q0 39 -25.5 66t-84.5 27h-86v48h71q45 0 77 24t32 70q0 14 -4.5 30t-18.5 29.5t-39 22t-65 8.5q-71 0 -102.5 -31.5t-36.5 -79.5h-62
q4 47 22 78.5t45 50.5t62 27t73 8q40 0 74.5 -7.5t60.5 -24t41 -43t15 -64.5q0 -23 -7 -42t-18.5 -34t-26.5 -25t-31 -13v-2q18 -3 36 -11t32 -22.5t23 -36t9 -51.5q0 -42 -17 -73.5t-45.5 -52.5t-66 -31.5t-78.5 -10.5z" />
    <glyph glyph-name="afii10074" unicode="&#x438;" horiz-adv-x="544" 
d="M59 516h63v-442l285 442h78v-516h-63v442l-285 -442h-78v516z" />
    <glyph glyph-name="afii10075" unicode="&#x439;" horiz-adv-x="544" 
d="M59 0h78l285 442v-442h63v516h-78l-285 -442v442h-63v-516zM270 592q63 0 99 33.5t47 96.5h-39q-8 -39 -35.5 -60.5t-70.5 -21.5q-45 0 -71.5 22t-31.5 60h-39q8 -63 43 -96.5t98 -33.5z" />
    <glyph glyph-name="afii10076" unicode="&#x43a;" horiz-adv-x="498" 
d="M60 516h63v-265l286 265h84l-219 -202l232 -314h-79l-199 271l-105 -97v-174h-63v516z" />
    <glyph glyph-name="afii10077" unicode="&#x43b;" horiz-adv-x="565" 
d="M54 -5q-5 0 -12 1t-14.5 2t-14 2.5t-9.5 2.5v55q8 -3 24 -5t27 -2q10 0 22 3t24 16.5t23 42.5t19 80.5t13 130t5 192.5h345v-516h-63v463h-221q0 -112 -6.5 -190t-18.5 -130t-28 -82t-34.5 -44.5t-39 -18t-41.5 -3.5z" />
    <glyph glyph-name="afii10078" unicode="&#x43c;" horiz-adv-x="668" 
d="M59 516h84l192 -445l190 445h84v-516h-63v425h-3l-181 -425h-56l-181 425h-3v-425h-63v516z" />
    <glyph glyph-name="afii10079" unicode="&#x43d;" horiz-adv-x="537" 
d="M59 516h63v-219h293v219h63v-516h-63v244h-293v-244h-63v516z" />
    <glyph glyph-name="afii10080" unicode="&#x43e;" 
d="M278 -14q-59 0 -104.5 21.5t-76.5 58.5t-47 86.5t-16 105.5q0 55 16 105t47 87t76.5 59t104.5 22t104.5 -22t76.5 -59t47 -87t16 -105q0 -56 -16 -105.5t-47 -86.5t-76.5 -58.5t-104.5 -21.5zM278 38q45 0 79 19t56.5 50t34 70.5t11.5 80.5t-11.5 80.5t-34 70.5t-56.5 50
t-79 19t-79 -19t-56.5 -50t-34 -70.5t-11.5 -80.5t11.5 -80.5t34 -70.5t56.5 -50t79 -19z" />
    <glyph glyph-name="afii10081" unicode="&#x43f;" horiz-adv-x="530" 
d="M59 516h412v-516h-63v463h-286v-463h-63v516z" />
    <glyph glyph-name="afii10082" unicode="&#x440;" horiz-adv-x="574" 
d="M60 516h58v-98h2q22 54 71.5 83.5t112.5 29.5q59 0 102.5 -22t72.5 -59.5t43 -87t14 -104.5q0 -56 -14 -105t-43 -86.5t-72.5 -59t-102.5 -21.5q-29 0 -56.5 7t-51.5 21t-42.5 35t-28.5 49h-2v-288h-63v706zM304 38q45 0 77 19.5t52.5 50.5t30 70.5t9.5 79.5t-9.5 79.5
t-30 70.5t-52.5 50.5t-77 19.5q-53 0 -87.5 -18t-55.5 -48t-29.5 -70t-8.5 -84q0 -40 9.5 -79.5t31 -70.5t56 -50.5t84.5 -19.5z" />
    <glyph glyph-name="afii10083" unicode="&#x441;" horiz-adv-x="519" 
d="M278 -14q-59 0 -104.5 21.5t-76.5 58.5t-47 86.5t-16 105.5q0 55 16 105t47 87t76.5 59t104.5 22q83 0 140.5 -44t68.5 -133h-63q-13 58 -48 91t-98 33q-45 0 -79 -19t-56.5 -50t-34 -70.5t-11.5 -80.5t11.5 -80.5t34 -70.5t56.5 -50t79 -19q29 0 55 11t46 30.5t33 46.5
t16 59h63q-13 -94 -69 -146.5t-144 -52.5z" />
    <glyph glyph-name="afii10084" unicode="&#x442;" horiz-adv-x="443" 
d="M190 463h-191v53h445v-53h-191v-463h-63v463z" />
    <glyph glyph-name="afii10085" unicode="&#x443;" horiz-adv-x="463" 
d="M101 -190q-19 1 -29.5 1.5t-18.5 3.5v53q11 -2 21.5 -3.5t21.5 -1.5q21 0 34.5 6t23.5 16.5t17 25.5t15 33l22 58l-206 514h67l170 -440l159 440h63l-224 -594q-14 -33 -26 -54.5t-26.5 -34t-34 -18t-49.5 -5.5z" />
    <glyph glyph-name="afii10086" unicode="&#x444;" horiz-adv-x="800" 
d="M369 55h-2q-17 -30 -52 -49.5t-77 -19.5q-41 0 -77 18t-63.5 52.5t-43.5 84.5t-16 115q0 137 53.5 206t147.5 69q42 0 75 -18.5t53 -51.5h2v253h63v-253h2q20 33 53 51.5t75 18.5q94 0 147.5 -69t53.5 -206q0 -65 -16 -115t-43.5 -84.5t-64 -52.5t-76.5 -18
q-42 0 -77 19.5t-52 49.5q-1 -1 -2 0v-245h-63v245zM254 39q49 0 82 30.5t33 81.5v217q0 24 -9 44t-24 35t-36 23t-45 8q-32 0 -60 -12.5t-49 -39.5t-33 -69t-12 -101q0 -57 11 -98.5t31.5 -67.5t48.5 -38.5t62 -12.5zM547 39q34 0 62 12.5t48 38.5t31.5 67.5t11.5 98.5
q0 59 -12 101t-33 69t-49 39.5t-60 12.5q-24 0 -45 -8t-36 -23t-24 -35t-9 -44v-217q0 -51 33 -81.5t82 -30.5z" />
    <glyph glyph-name="afii10087" unicode="&#x445;" horiz-adv-x="481" 
d="M201 268l-185 248h79l147 -196l144 196h79l-186 -247l201 -269h-80l-162 217l-159 -217h-78z" />
    <glyph glyph-name="afii10088" unicode="&#x446;" horiz-adv-x="552" 
d="M481 0h-422v516h63v-463h283v463h63v-463h76v-217h-63v164z" />
    <glyph glyph-name="afii10089" unicode="&#x447;" horiz-adv-x="498" 
d="M376 225q-15 -6 -34.5 -11.5t-42 -10t-46.5 -7t-48 -2.5q-78 0 -120.5 38t-42.5 128v156h63v-163q0 -38 10.5 -58.5t27 -30t36.5 -11.5t39 -2q41 0 85.5 9.5t72.5 21.5v234h63v-516h-63v225z" />
    <glyph glyph-name="afii10090" unicode="&#x448;" horiz-adv-x="783" 
d="M59 516h63v-463h238v463h63v-463h238v463h63v-516h-665v516z" />
    <glyph glyph-name="afii10091" unicode="&#x449;" horiz-adv-x="808" 
d="M737 0h-678v516h63v-463h238v463h63v-463h238v463h63v-463h76v-217h-63v164z" />
    <glyph glyph-name="afii10092" unicode="&#x44a;" horiz-adv-x="605" 
d="M169 463h-159v53h222v-207h185q75 0 119 -40t44 -113t-44 -114.5t-119 -41.5h-248v463zM402 53q54 0 84.5 26t30.5 77t-30.5 75.5t-84.5 24.5h-170v-203h170z" />
    <glyph glyph-name="afii10093" unicode="&#x44b;" horiz-adv-x="671" 
d="M59 516h63v-207h167q75 0 119 -40t44 -113t-44 -114.5t-119 -41.5h-230v516zM274 53q54 0 84.5 26t30.5 77t-30.5 75.5t-84.5 24.5h-152v-203h152zM549 516h63v-516h-63v516z" />
    <glyph glyph-name="afii10094" unicode="&#x44c;" horiz-adv-x="500" 
d="M64 516h63v-207h185q75 0 119 -40t44 -113t-44 -114.5t-119 -41.5h-248v516zM297 53q54 0 84.5 26t30.5 77t-30.5 75.5t-84.5 24.5h-170v-203h170z" />
    <glyph glyph-name="afii10095" unicode="&#x44d;" horiz-adv-x="519" 
d="M245 -14q-90 0 -145.5 47.5t-71.5 133.5h63q14 -63 55.5 -96t101.5 -33q75 0 119.5 53t49.5 146h-236v53h236q-8 88 -54 138.5t-121 50.5q-57 0 -94.5 -29.5t-51.5 -84.5h-65q14 78 69 122t143 44q54 0 98.5 -20t76 -56t48.5 -87.5t17 -114.5q0 -61 -17 -110t-48 -84
t-75 -54t-98 -19z" />
    <glyph glyph-name="afii10096" unicode="&#x44e;" horiz-adv-x="745" 
d="M474 -14q-53 0 -96 20t-73.5 54.5t-48 81.5t-19.5 100h-115v-242h-63v516h63v-221h117q5 49 23.5 92t48.5 75t71 50.5t92 18.5q55 0 99 -22t74.5 -59t47 -87t16.5 -105q0 -56 -16.5 -105.5t-47 -86.5t-74.5 -58.5t-99 -21.5zM474 38q41 0 73.5 19t55 50t34 70.5
t11.5 80.5t-11.5 80.5t-34 70.5t-55 50t-73.5 19t-73.5 -19t-55 -50t-34 -70.5t-11.5 -80.5t11.5 -80.5t34 -70.5t55 -50t73.5 -19z" />
    <glyph glyph-name="afii10097" unicode="&#x44f;" horiz-adv-x="506" 
d="M191 209q-69 5 -109.5 45.5t-40.5 107.5q0 34 11 62.5t31 48.5t49 31.5t65 11.5h250v-516h-63v205h-122l-177 -205h-82zM384 258v205h-172q-52 0 -80 -28.5t-28 -73.5t28 -74t80 -29h172z" />
    <glyph glyph-name="uni0450" unicode="&#x450;" horiz-adv-x="519" 
d="M267 -14q-62 0 -106 21.5t-72 59t-41.5 86.5t-13.5 105q0 51 13.5 100t41.5 87.5t72 62t106 23.5t106 -25t71.5 -65.5t39.5 -93t10 -106.5h-397q0 -35 9.5 -71t30.5 -65t53 -48t77 -19q69 0 108 36t54 96h63q-20 -88 -73.5 -136t-151.5 -48zM431 294q-1 36 -12.5 69
t-32.5 58.5t-51 41t-68 15.5q-39 0 -69 -15.5t-51 -41t-33.5 -59t-16.5 -68.5h334zM225 729l105 -141h-51l-131 141h77z" />
    <glyph glyph-name="afii10071" unicode="&#x451;" horiz-adv-x="519" 
d="M267 -14q-62 0 -106 21.5t-72 59t-41.5 86.5t-13.5 105q0 51 13.5 100t41.5 87.5t72 62t106 23.5t106 -25t71.5 -65.5t39.5 -93t10 -106.5h-397q0 -35 9.5 -71t30.5 -65t53 -48t77 -19q69 0 108 36t54 96h63q-20 -88 -73.5 -136t-151.5 -48zM431 294q-1 36 -12.5 69
t-32.5 58.5t-51 41t-68 15.5q-39 0 -69 -15.5t-51 -41t-33.5 -59t-16.5 -68.5h334zM137 706h67v-101h-67v101zM313 706h68v-101h-68v101z" />
    <glyph glyph-name="afii10099" unicode="&#x452;" horiz-adv-x="547" 
d="M271 -190q-21 0 -43 3v59q21 -3 41 -3q85 0 120.5 46t35.5 131v261q0 156 -129 156q-36 0 -66.5 -13t-52 -36t-33.5 -56t-12 -72v-286h-63v581h-82v53h82v80h63v-80h233v-53h-233v-169h2q24 54 69 79t105 25q180 0 180 -199v-280q0 -103 -53.5 -165t-163.5 -62z" />
    <glyph glyph-name="afii10100" unicode="&#x453;" horiz-adv-x="400" 
d="M65 516h341v-53h-278v-463h-63v516zM168 588l105 141h78l-132 -141h-51z" />
    <glyph glyph-name="afii10101" unicode="&#x454;" horiz-adv-x="519" 
d="M274 -14q-54 0 -98 19t-75 54t-48 84t-17 110q0 63 17 114t48.5 87.5t76 56t98.5 19.5q88 0 141.5 -43.5t67.5 -121.5h-65q-14 55 -50 84t-93 29q-75 0 -121 -50t-54 -138h241v-53h-241q5 -93 49.5 -146t119.5 -53q60 0 100 33t54 96h63q-17 -81 -70.5 -131t-143.5 -50z
" />
    <glyph glyph-name="afii10102" unicode="&#x455;" horiz-adv-x="481" 
d="M243 -14q-91 0 -147.5 43t-64.5 138h63q4 -64 46.5 -96.5t105.5 -32.5q22 0 47 5t46 17t34.5 30.5t13.5 45.5q0 23 -9.5 38.5t-25.5 26t-36.5 17.5t-41.5 12l-81 18q-31 8 -57 18t-45.5 26t-30.5 38.5t-11 55.5q0 39 17.5 67t45.5 45t62.5 25t68.5 8q39 0 72.5 -10
t59 -31t40.5 -52t17 -73h-63q-1 29 -12 50.5t-29.5 35.5t-42.5 20.5t-51 6.5q-21 0 -42.5 -4.5t-39.5 -15t-29 -27.5t-11 -42q0 -21 10.5 -35.5t26.5 -24.5t34.5 -16.5t35.5 -10.5l84 -19q27 -4 53.5 -14.5t47 -27.5t33.5 -42t13 -59q0 -42 -19 -71.5t-48.5 -48t-66.5 -26.5
t-73 -8z" />
    <glyph glyph-name="afii10103" unicode="&#x456;" horiz-adv-x="185" 
d="M61 516h63v-516h-63v516zM61 714h63v-101h-63v101z" />
    <glyph glyph-name="afii10104" unicode="&#x457;" horiz-adv-x="185" 
d="M-29 706h67v-101h-67v101zM147 706h68v-101h-68v101zM61 516h63v-516h-63v516z" />
    <glyph glyph-name="afii10105" unicode="&#x458;" horiz-adv-x="185" 
d="M14 -190q-11 0 -21.5 0.5t-21.5 1.5v52q5 -1 33 -1q37 0 47 21.5t10 53.5v578h63v-563q0 -29 -4.5 -55t-17 -45.5t-34 -31t-54.5 -11.5zM61 714h63v-101h-63v101z" />
    <glyph glyph-name="afii10106" unicode="&#x459;" horiz-adv-x="879" 
d="M54 -5q-5 0 -12 1t-14.5 2t-14 2.5t-9.5 2.5v55q8 -3 24 -5t27 -2q10 0 22 3t24 16.5t23 42.5t19 80.5t13 130t5 192.5h345v-207h185q75 0 119 -40t44 -113t-44 -114.5t-119 -41.5h-248v463h-221q0 -112 -6.5 -190t-18.5 -130t-28 -82t-34.5 -44.5t-39 -18t-41.5 -3.5z
M676 53q54 0 84.5 26t30.5 77t-30.5 75.5t-84.5 24.5h-170v-203h170z" />
    <glyph glyph-name="afii10107" unicode="&#x45a;" horiz-adv-x="851" 
d="M59 516h63v-210h293v210h63v-210h185q75 0 119 -40t44 -113t-44 -113t-119 -40h-248v253h-293v-253h-63v516zM648 53q54 0 84.5 24.5t30.5 75.5t-30.5 75.5t-84.5 24.5h-170v-200h170z" />
    <glyph glyph-name="afii10108" unicode="&#x45b;" horiz-adv-x="547" 
d="M69 581h-82v53h82v80h63v-80h233v-53h-233v-169h2q24 54 69 79t105 25q180 0 180 -199v-317h-63v307q0 156 -129 156q-36 0 -66.5 -13t-52 -36t-33.5 -56t-12 -72v-286h-63v581z" />
    <glyph glyph-name="afii10109" unicode="&#x45c;" horiz-adv-x="500" 
d="M60 516h63v-265l286 265h84l-219 -202l232 -314h-79l-199 271l-105 -97v-174h-63v516zM208 588l105 141h78l-132 -141h-51z" />
    <glyph glyph-name="uni045D" unicode="&#x45d;" horiz-adv-x="544" 
d="M59 516h63v-442l285 442h78v-516h-63v442l-285 -442h-78v516zM238 729l105 -141h-51l-131 141h77z" />
    <glyph glyph-name="afii10110" unicode="&#x45e;" horiz-adv-x="463" 
d="M101 -190q30 0 49.5 5.5t34 18t26.5 34t26 54.5l224 594h-63l-159 -440l-170 440h-67l206 -514l-22 -58q-8 -18 -15 -33t-17 -25.5t-23.5 -16.5t-34.5 -6q-11 0 -21.5 1.5t-21.5 3.5v-53q8 -3 18.5 -3.5t29.5 -1.5zM237 592q63 0 99 33.5t47 96.5h-39q-8 -39 -35.5 -60.5
t-70.5 -21.5q-45 0 -71.5 22t-31.5 60h-39q8 -63 43 -96.5t98 -33.5z" />
    <glyph glyph-name="afii10193" unicode="&#x45f;" horiz-adv-x="527" 
d="M232 0h-173v516h63v-463h283v463h63v-516h-173v-164h-63v164z" />
    <glyph glyph-name="afii10146" unicode="&#x462;" horiz-adv-x="736" 
d="M178 552h-178v58h178v104h68v-104h249v-58h-249v-140h249q100 0 156 -55t56 -151t-56 -151t-156 -55h-317v552zM480 58q75 0 117 39.5t42 108.5t-42 108.5t-117 39.5h-234v-296h234z" />
    <glyph glyph-name="afii10194" unicode="&#x463;" horiz-adv-x="564" 
d="M128 463h-128v53h128v198h63v-198h192v-53h-192v-154h185q75 0 119 -40t44 -113t-44 -114.5t-119 -41.5h-248v463zM361 53q54 0 84.5 26t30.5 77t-30.5 75.5t-84.5 24.5h-170v-203h170z" />
    <glyph glyph-name="uni046A" unicode="&#x46a;" horiz-adv-x="924" 
d="M60 200q0 36 6.5 72.5t29.5 66t67 48t119 18.5h111l-217 309h567l-219 -309h118q75 0 119 -18.5t67 -48t29.5 -66t6.5 -72.5v-200h-68v196q0 22 -4 48t-20 48.5t-46.5 38t-84.5 15.5h-145v-346h-68v346h-145q-54 0 -84.5 -15.5t-46.5 -38t-20 -48.5t-4 -48v-196h-68v200z
M626 656h-331l163 -241z" />
    <glyph glyph-name="uni046B" unicode="&#x46b;" horiz-adv-x="709" 
d="M50 126q0 90 42.5 127t120.5 37h85l-169 226h449l-170 -226h88q78 0 120.5 -37t42.5 -127v-126h-63v133q0 37 -10.5 58t-27 31.5t-36.5 12.5t-39 2h-97v-237h-63v237h-97q-19 0 -39 -2t-36.5 -12.5t-27 -31.5t-10.5 -58v-133h-63v126zM460 463h-212l107 -143z" />
    <glyph glyph-name="afii10147" unicode="&#x472;" horiz-adv-x="741" 
d="M371 -14q-84 0 -147.5 30.5t-105.5 81.5t-63 118t-21 141q0 73 21 140.5t63 119t105.5 82t147.5 30.5t147 -30.5t105 -82t63 -119t21 -140.5q0 -74 -21 -141t-63 -118t-105 -81.5t-147 -30.5zM371 43q69 0 119 26t83 69t49 98t17 113q-32 -26 -70 -45.5t-72 -19.5
q-28 0 -63.5 13.5t-71.5 29t-68 29t-54 13.5t-41.5 -7t-36.5 -17.5t-31 -23t-25 -22.5q7 -51 26 -97t51 -81.5t79 -56.5t109 -21zM102 364q15 12 32.5 23.5t36 20.5t37.5 14.5t37 5.5q25 0 60.5 -13.5t72 -29t69 -29t51.5 -13.5q37 0 73.5 21.5t63.5 48.5q-6 51 -25 97.5
t-51.5 82t-79 57t-108.5 21.5q-70 0 -120.5 -26.5t-83 -69.5t-48.5 -98.5t-17 -112.5z" />
    <glyph glyph-name="afii10195" unicode="&#x473;" 
d="M278 -14q-59 0 -104.5 21.5t-76.5 58.5t-47 86.5t-16 105.5q0 55 16 105t47 87t76.5 59t104.5 22t104.5 -22t76.5 -59t47 -87t16 -105q0 -56 -16 -105.5t-47 -86.5t-76.5 -58.5t-104.5 -21.5zM278 38q44 0 77.5 18.5t56.5 48.5t34.5 68.5t12.5 79.5q-23 -18 -47 -30
t-49 -12q-22 0 -47 9t-50 20t-47.5 20t-38.5 9q-23 0 -44 -12.5t-38 -29.5q4 -37 17.5 -71t36 -60.5t54 -42t72.5 -15.5zM364 260q22 0 46.5 13.5t44.5 31.5q-6 34 -20 65.5t-36 55.5t-52.5 38t-68.5 14q-42 0 -74 -16.5t-54.5 -43.5t-35.5 -62.5t-16 -72.5q17 15 38 25.5
t49 10.5q18 0 43.5 -9t51.5 -20.5t49 -20.5t35 -9z" />
    <glyph glyph-name="afii10148" unicode="&#x474;" horiz-adv-x="647" 
d="M-6 714h72l222 -639h2l190 548q12 37 29 57t35 30t36.5 12t33.5 2q6 0 14.5 -1t17.5 -2t16 -2.5t10 -2.5v-58q-8 4 -24.5 5.5t-24.5 1.5t-19 -1t-22.5 -7.5t-22.5 -19.5t-19 -37l-213 -600h-79z" />
    <glyph glyph-name="afii10196" unicode="&#x475;" horiz-adv-x="513" 
d="M2 516h70l162 -453h2l122 377q9 28 22 45t28 26t31.5 11.5t33.5 2.5q4 0 11.5 -1l15 -2t14 -2.5t9.5 -2.5v-55q-8 3 -24 5t-27 2q-14 0 -31 -11t-30 -47l-143 -411h-67z" />
    <glyph glyph-name="uni048C" unicode="&#x48c;" horiz-adv-x="716" 
d="M158 656h-158v58h158v104h68v-104h169v-58h-169v-244h249q100 0 156 -55t56 -151t-56 -151t-156 -55h-317v656zM460 58q75 0 117 39.5t42 108.5t-42 108.5t-117 39.5h-234v-296h234z" />
    <glyph glyph-name="uni048D" unicode="&#x48d;" horiz-adv-x="544" 
d="M108 463h-108v53h108v120h63v-120h118v-53h-118v-154h185q75 0 119 -40t44 -113t-44 -114.5t-119 -41.5h-248v463zM341 53q54 0 84.5 26t30.5 77t-30.5 75.5t-84.5 24.5h-170v-203h170z" />
    <glyph glyph-name="afii10050" unicode="&#x490;" horiz-adv-x="514" 
d="M78 714h373v161h68v-219h-373v-656h-68v714z" />
    <glyph glyph-name="afii10098" unicode="&#x491;" horiz-adv-x="400" 
d="M65 516h271v155h63v-208h-271v-463h-63v516z" />
    <glyph glyph-name="uni0492" unicode="&#x492;" horiz-adv-x="578" 
d="M142 340h-122v58h122v316h441v-58h-373v-258h205v-58h-205v-340h-68v340z" />
    <glyph glyph-name="uni0493" unicode="&#x493;" horiz-adv-x="453" 
d="M118 233h-98v53h98v230h341v-53h-278v-177h172v-53h-172v-233h-63v233z" />
    <glyph glyph-name="uni0496" unicode="&#x496;" horiz-adv-x="1010" 
d="M313 406l-296 308h92l352 -376v376h68v-376l352 376h92l-296 -308l275 -348h85v-248h-68v190h-59l-281 356l-100 -104v-252h-68v252l-100 104l-281 -356h-88z" />
    <glyph glyph-name="uni0497" unicode="&#x497;" horiz-adv-x="757" 
d="M216 300l-201 216h85l237 -264v264h63v-263l237 263h85l-201 -216l184 -247h76v-217h-63v164h-51l-190 258l-77 -80v-178h-63v178l-77 80l-190 -258h-77z" />
    <glyph glyph-name="uni0498" unicode="&#x498;" horiz-adv-x="627" 
d="M318 -205q-24 0 -48 5t-45 16l13 32q13 -5 35 -9.5t44 -4.5q21 0 37 10t16 33q0 18 -13 28t-30 10q-33 0 -51 -8l-16 15l49 63q-58 2 -106 16q-53 17 -89.5 48.5t-56 77t-19.5 102.5v6h65q0 -99 61 -147t163 -48q45 0 81 13.5t60.5 36.5t38 53.5t13.5 64.5
q0 31 -12.5 56.5t-34.5 43.5t-51.5 28t-63.5 10h-114v58h114q28 0 54 8t46 23.5t31.5 39t11.5 54.5q0 37 -13.5 64t-36.5 44.5t-55 26t-68 8.5q-42 0 -78 -10t-62.5 -30.5t-42 -51t-18.5 -70.5h-66q3 55 23.5 96t55.5 68.5t82.5 41t103.5 13.5q50 0 94.5 -11.5t77.5 -35.5
t52 -60.5t19 -86.5q0 -28 -9 -52.5t-24 -44t-34 -33.5t-38 -21v-3q57 -15 90.5 -57.5t33.5 -114.5q0 -33 -13.5 -72t-44.5 -73t-82 -57q-43 -18 -104 -21l-32 -43q18 3 38 2.5t37.5 -7t29 -20.5t11.5 -37t-10 -39t-26 -26.5t-35.5 -15.5t-38.5 -5z" />
    <glyph glyph-name="uni0499" unicode="&#x499;" horiz-adv-x="485" 
d="M230 -205q-24 0 -48 5t-45 16l13 32q13 -5 35 -9.5t44 -4.5q21 0 37 10t16 33q0 18 -13 28t-30 10q-33 0 -51 -8l-16 15l50 65q-89 4 -137 46q-52 48 -57 129h63q4 -28 14 -51t28 -39t44.5 -24.5t64.5 -8.5q43 0 70 10t42.5 26.5t21.5 36.5t6 40q0 39 -25.5 66t-84.5 27
h-86v48h71q45 0 77 24t32 70q0 14 -4.5 30t-18.5 29.5t-39 22t-65 8.5q-71 0 -102.5 -31.5t-36.5 -79.5h-62q4 47 22 78.5t45 50.5t62 27t73 8q40 0 74.5 -7.5t60.5 -24t41 -43t15 -64.5q0 -23 -7 -42t-18.5 -34t-26.5 -25t-31 -13v-2q18 -3 36 -11t32 -22.5t23 -36t9 -51.5
q0 -42 -17 -73.5t-45.5 -52.5t-66.5 -31q-30 -9 -62 -10l-33 -44q18 3 38 2.5t37.5 -7t29 -20.5t11.5 -37t-10 -39t-26 -26.5t-35.5 -15.5t-38.5 -5z" />
    <glyph glyph-name="uni049A" unicode="&#x49a;" horiz-adv-x="668" 
d="M633 0h-59l-297 372l-137 -127v-245h-68v714h68v-384l415 384h92l-319 -295l288 -361h85v-248h-68v190z" />
    <glyph glyph-name="uni049B" unicode="&#x49b;" horiz-adv-x="518" 
d="M480 0h-53l-199 271l-105 -97v-174h-63v516h63v-265l286 265h84l-219 -202l193 -261h76v-217h-63v164z" />
    <glyph glyph-name="uni049C" unicode="&#x49c;" horiz-adv-x="648" 
d="M72 714h68v-310h73v157h45v-157h23l279 310h87l-306 -332l321 -382h-88l-293 346h-23v-170h-45v170h-73v-346h-68v714z" />
    <glyph glyph-name="uni049D" unicode="&#x49d;" horiz-adv-x="498" 
d="M60 516h63v-219h41v118h45v-118h20l186 219h78l-211 -238l224 -278h-79l-198 244h-20v-124h-45v124h-41v-244h-63v516z" />
    <glyph glyph-name="uni04A0" unicode="&#x4a0;" horiz-adv-x="787" 
d="M211 656h-216v58h284v-384l415 384h92l-319 -295l334 -419h-88l-297 372l-137 -127v-245h-68v656z" />
    <glyph glyph-name="uni04A1" unicode="&#x4a1;" horiz-adv-x="607" 
d="M169 463h-159v53h222v-265l286 265h84l-219 -202l232 -314h-79l-199 271l-105 -97v-174h-63v463z" />
    <glyph glyph-name="uni04A2" unicode="&#x4a2;" horiz-adv-x="725" 
d="M649 0h-85v346h-424v-346h-68v714h68v-310h424v310h68v-656h85v-248h-68v190z" />
    <glyph glyph-name="uni04A3" unicode="&#x4a3;" horiz-adv-x="562" 
d="M491 0h-76v244h-293v-244h-63v516h63v-219h293v219h63v-463h76v-217h-63v164z" />
    <glyph glyph-name="uni04A4" unicode="&#x4a4;" horiz-adv-x="1000" 
d="M72 714h68v-310h424v310h441v-58h-373v-656h-68v346h-424v-346h-68v714z" />
    <glyph glyph-name="uni04A5" unicode="&#x4a5;" horiz-adv-x="750" 
d="M59 516h63v-219h293v219h341v-53h-278v-463h-63v244h-293v-244h-63v516z" />
    <glyph glyph-name="uni04AA" unicode="&#x4aa;" horiz-adv-x="704" 
d="M368 -205q-24 0 -48 5t-45 16l13 32q13 -5 35 -9.5t44 -4.5q21 0 37 10t16 33q0 18 -13 28t-30 10q-33 0 -51 -8l-16 15l50 64q-75 3 -133 30q-63 31 -105 82t-63 118t-21 141q0 73 21 140.5t63 119t105.5 82t147.5 30.5q51 0 99.5 -15t88 -44.5t66 -72.5t33.5 -99h-68
q-9 41 -29.5 73.5t-50 54.5t-65 33.5t-74.5 11.5q-71 0 -122 -27t-83.5 -71.5t-48 -101t-15.5 -114.5q0 -59 15.5 -115t48 -100.5t83.5 -71.5t122 -27q49 0 89.5 18t69.5 49t47 72.5t23 89.5h68q-7 -66 -31 -119t-62 -90t-90 -57q-43 -16 -94 -19l-33 -44q18 3 38 2.5
t37.5 -7t29 -20.5t11.5 -37t-10 -39t-26 -26.5t-35.5 -15.5t-38.5 -5z" />
    <glyph glyph-name="uni04AB" unicode="&#x4ab;" horiz-adv-x="519" 
d="M258 -205q-24 0 -48 5t-45 16l13 32q13 -5 35 -9.5t44 -4.5q21 0 37 10t16 33q0 18 -13 28t-30 10q-33 0 -51 -8l-16 15l51 65q-43 4 -78 20q-45 22 -76 59t-47 86.5t-16 105.5q0 55 16 105t47 87t76.5 59t104.5 22q83 0 140.5 -44t68.5 -133h-63q-13 58 -48 91t-98 33
q-45 0 -79 -19t-56.5 -50t-34 -70.5t-11.5 -80.5t11.5 -80.5t34 -70.5t56.5 -50t79 -19q29 0 55 11t46 30.5t33 46.5t16 59h63q-13 -94 -69 -147q-54 -50 -137 -52l-33 -43q18 3 38 2.5t37.5 -7t29 -20.5t11.5 -37t-10 -39t-26 -26.5t-35.5 -15.5t-38.5 -5z" />
    <glyph glyph-name="uni04AE" unicode="&#x4ae;" horiz-adv-x="611" 
d="M271 294l-280 420h80l235 -362l234 362h81l-282 -420v-294h-68v294z" />
    <glyph glyph-name="uni04AF" unicode="&#x4af;" horiz-adv-x="463" 
d="M206 7l-204 509h67l170 -440l159 440h63l-192 -511v-195h-63v197z" />
    <glyph glyph-name="uni04B0" unicode="&#x4b0;" horiz-adv-x="611" 
d="M271 169h-162v58h162v67l-280 420h80l235 -362l234 362h81l-282 -420v-67h165v-58h-165v-169h-68v169z" />
    <glyph glyph-name="uni04B1" unicode="&#x4b1;" horiz-adv-x="463" 
d="M206 -91h-128v53h128v45l-204 509h67l170 -440l159 440h63l-192 -511v-43h128v-53h-128v-99h-63v99z" />
    <glyph glyph-name="uni04B2" unicode="&#x4b2;" horiz-adv-x="594" 
d="M560 0h-58l-217 315l-220 -315h-76l256 368l-242 346h80l202 -299l209 299h76l-244 -348l217 -308h85v-248h-68v190z" />
    <glyph glyph-name="uni04B3" unicode="&#x4b3;" horiz-adv-x="501" 
d="M453 0h-53l-162 217l-159 -217h-78l200 268l-185 248h79l147 -196l144 196h79l-186 -247l161 -216h76v-217h-63v164z" />
    <glyph glyph-name="uni04B6" unicode="&#x4b6;" horiz-adv-x="651" 
d="M575 0h-85v325q-15 -4 -42 -9t-58.5 -9.5t-63 -8t-55.5 -3.5q-77 0 -122.5 18.5t-69.5 48t-31 66t-7 72.5v214h68v-210q0 -22 4 -48t20 -48.5t46.5 -38t84.5 -15.5q32 0 66.5 3.5t65.5 8t55.5 9.5t38.5 8v331h68v-656h85v-248h-68v190z" />
    <glyph glyph-name="uni04B7" unicode="&#x4b7;" horiz-adv-x="523" 
d="M452 0h-76v225q-15 -6 -34.5 -11.5t-42 -10t-46.5 -7t-48 -2.5q-78 0 -120.5 38t-42.5 128v156h63v-163q0 -38 10.5 -58.5t27 -30t36.5 -11.5t39 -2q41 0 85.5 9.5t72.5 21.5v234h63v-463h76v-217h-63v164z" />
    <glyph glyph-name="uni04B8" unicode="&#x4b8;" horiz-adv-x="630" 
d="M490 325q-12 -3 -31.5 -7t-42.5 -8t-48.5 -7.5t-49.5 -5.5v-161h-45v159h-2q-77 0 -122.5 18.5t-69.5 48t-31 66t-7 72.5v214h68v-210q0 -22 4 -48t20 -48.5t46.5 -38t84.5 -15.5h9v157h45v-155q27 2 53 5.5t49 7.5t41 7.5t29 6.5v331h68v-714h-68v325z" />
    <glyph glyph-name="uni04B9" unicode="&#x4b9;" horiz-adv-x="498" 
d="M376 225q-22 -8 -52.5 -16t-65.5 -12v-122h-45v119h-8q-78 0 -120.5 38t-42.5 128v156h63v-163q0 -36 10 -56.5t25.5 -30.5t34.5 -12.5t38 -2.5v119h45v-117q33 4 64.5 12t53.5 17v234h63v-516h-63v225z" />
    <glyph glyph-name="uni04BA" unicode="&#x4ba;" horiz-adv-x="630" 
d="M72 714h68v-305q15 4 42 9t58.5 9.5t63 8t55.5 3.5q77 0 122.5 -18.5t69.5 -48t31 -66t7 -72.5v-234h-68v230q0 22 -4 48t-20 48.5t-46.5 38t-84.5 15.5q-32 0 -66.5 -3.5t-65.5 -8t-56 -9.5t-38 -8v-351h-68v714z" />
    <glyph glyph-name="uni04BB" unicode="&#x4bb;" horiz-adv-x="537" 
d="M59 714h63v-287h2q18 48 64 76t101 28q54 0 90.5 -14t58.5 -39.5t31 -62.5t9 -83v-332h-63v322q0 33 -6 61.5t-21 49.5t-40.5 33t-63.5 12t-67.5 -13.5t-50 -37t-32 -56t-12.5 -70.5v-301h-63v714z" />
    <glyph glyph-name="uni04C0" unicode="&#x4c0;" horiz-adv-x="222" 
d="M77 714h68v-714h-68v714z" />
    <glyph glyph-name="uni04C1" unicode="&#x4c1;" horiz-adv-x="990" 
d="M313 406l-296 308h92l352 -376v376h68v-376l352 376h92l-296 -308l321 -406h-88l-281 356l-100 -104v-252h-68v252l-100 104l-281 -356h-88zM391 920q1 -20 10 -35.5t23 -26t32 -15.5t37 -5q38 0 69 21.5t37 60.5h39q-8 -60 -46.5 -93.5t-98.5 -33.5q-61 0 -98.5 33
t-42.5 94h39z" />
    <glyph glyph-name="uni04C2" unicode="&#x4c2;" horiz-adv-x="737" 
d="M216 300l-201 216h85l237 -264v264h63v-263l237 263h85l-201 -216l223 -300h-77l-190 258l-77 -80v-178h-63v178l-77 80l-190 -258h-77zM264 722q1 -20 10 -35.5t23 -26t32 -15.5t37 -5q38 0 69 21.5t37 60.5h39q-8 -60 -46.5 -93.5t-98.5 -33.5q-61 0 -98.5 33t-42.5 94
h39z" />
    <glyph glyph-name="uni04D0" unicode="&#x4d0;" horiz-adv-x="630" 
d="M281 714h76l280 -714h-73l-87 222h-325l-86 -222h-72zM454 280l-138 366l-143 -366h281zM211 920q1 -20 10 -35.5t23 -26t32 -15.5t37 -5q38 0 69 21.5t37 60.5h39q-8 -60 -46.5 -93.5t-98.5 -33.5q-61 0 -98.5 33t-42.5 94h39z" />
    <glyph glyph-name="uni04D1" unicode="&#x4d1;" horiz-adv-x="519" 
d="M205 -14q-36 0 -67.5 8.5t-55 27t-37 47t-13.5 67.5q0 54 24 84.5t63.5 46.5t89 22.5t100.5 12.5q19 2 34.5 5t25.5 10.5t15.5 20.5t5.5 34q0 32 -10.5 52.5t-29 32.5t-43 16.5t-52.5 4.5q-60 0 -98 -28.5t-40 -91.5h-63q6 91 62.5 132t146.5 41q34 0 68 -6.5t61 -24.5
t44 -50.5t17 -84.5v-274q0 -38 37 -38q12 0 20 4v-53q-11 -2 -19.5 -3t-21.5 -1q-24 0 -38.5 6.5t-22.5 18.5t-10.5 28.5t-2.5 36.5h-2q-17 -25 -34.5 -44.5t-39 -32.5t-49.5 -20t-65 -7zM210 38q36 0 69 11t57.5 32t39 51t14.5 68v82h-2q-6 -11 -23 -16t-30 -7
q-40 -7 -82.5 -12.5t-77.5 -16.5t-57.5 -32t-22.5 -58q0 -24 9.5 -42.5t25.5 -32t36.5 -20.5t43.5 -7zM155 722q1 -20 10 -35.5t23 -26t32 -15.5t37 -5q38 0 69 21.5t37 60.5h39q-8 -60 -46.5 -93.5t-98.5 -33.5q-61 0 -98.5 33t-42.5 94h39z" />
    <glyph glyph-name="uni04D2" unicode="&#x4d2;" horiz-adv-x="630" 
d="M281 714h76l280 -714h-73l-87 222h-325l-86 -222h-72zM454 280l-138 366l-143 -366h281zM193 889h67v-101h-67v101zM369 889h68v-101h-68v101z" />
    <glyph glyph-name="uni04D3" unicode="&#x4d3;" horiz-adv-x="519" 
d="M205 -14q-36 0 -67.5 8.5t-55 27t-37 47t-13.5 67.5q0 54 24 84.5t63.5 46.5t89 22.5t100.5 12.5q19 2 34.5 5t25.5 10.5t15.5 20.5t5.5 34q0 32 -10.5 52.5t-29 32.5t-43 16.5t-52.5 4.5q-60 0 -98 -28.5t-40 -91.5h-63q6 91 62.5 132t146.5 41q34 0 68 -6.5t61 -24.5
t44 -50.5t17 -84.5v-274q0 -38 37 -38q12 0 20 4v-53q-11 -2 -19.5 -3t-21.5 -1q-24 0 -38.5 6.5t-22.5 18.5t-10.5 28.5t-2.5 36.5h-2q-17 -25 -34.5 -44.5t-39 -32.5t-49.5 -20t-65 -7zM210 38q36 0 69 11t57.5 32t39 51t14.5 68v82h-2q-6 -11 -23 -16t-30 -7
q-40 -7 -82.5 -12.5t-77.5 -16.5t-57.5 -32t-22.5 -58q0 -24 9.5 -42.5t25.5 -32t36.5 -20.5t43.5 -7zM137 706h67v-101h-67v101zM313 706h68v-101h-68v101z" />
    <glyph glyph-name="uni04D4" unicode="&#x4d4;" horiz-adv-x="907" 
d="M367 714h513v-58h-367v-258h344v-58h-344v-282h371v-58h-439v226h-259l-116 -226h-76zM445 284v372h-40l-189 -372h229z" />
    <glyph glyph-name="uni04D5" unicode="&#x4d5;" horiz-adv-x="870" 
d="M205 -14q-36 0 -67.5 8.5t-55 27t-37 47t-13.5 67.5q0 54 24 84.5t63.5 46.5t89 22.5t100.5 12.5q19 2 34.5 5t25.5 10.5t15.5 20.5t5.5 34q0 32 -10.5 52.5t-29 32.5t-43 16.5t-52.5 4.5q-60 0 -98 -28.5t-40 -91.5h-63q6 91 62.5 132t146.5 41q26 0 54.5 -4.5t53 -16
t42 -32.5t22.5 -54h2q10 27 29 47t43.5 33.5t52.5 20t56 6.5q64 0 106.5 -24t68.5 -64.5t37 -93t11 -108.5h-388q-3 -41 6 -78t30 -64.5t54 -44t78 -16.5q64 0 101.5 34t51.5 95h63q-20 -88 -77 -134.5t-148 -46.5q-69 0 -117.5 31.5t-71.5 97.5h-2q-6 -33 -27.5 -57
t-52 -40t-66.5 -24t-70 -8zM210 38q36 0 69 11t57.5 32t39 51t14.5 68v82h-2q-6 -11 -23 -16t-30 -7q-40 -7 -82.5 -12.5t-77.5 -16.5t-57.5 -32t-22.5 -58q0 -24 9.5 -42.5t25.5 -32t36.5 -20.5t43.5 -7zM778 294q0 36 -11.5 69t-32.5 58.5t-51.5 41t-67.5 15.5
q-39 0 -69.5 -15t-51.5 -40.5t-31.5 -59t-9.5 -69.5h325z" />
    <glyph glyph-name="uni04D6" unicode="&#x4d6;" horiz-adv-x="593" 
d="M72 714h493v-58h-425v-258h398v-58h-398v-282h430v-58h-498v714zM220 920q1 -20 10 -35.5t23 -26t32 -15.5t37 -5q38 0 69 21.5t37 60.5h39q-8 -60 -46.5 -93.5t-98.5 -33.5q-61 0 -98.5 33t-42.5 94h39z" />
    <glyph glyph-name="uni04D7" unicode="&#x4d7;" horiz-adv-x="519" 
d="M267 -14q-62 0 -106 21.5t-72 59t-41.5 86.5t-13.5 105q0 51 13.5 100t41.5 87.5t72 62t106 23.5t106 -25t71.5 -65.5t39.5 -93t10 -106.5h-397q0 -35 9.5 -71t30.5 -65t53 -48t77 -19q69 0 108 36t54 96h63q-20 -88 -73.5 -136t-151.5 -48zM431 294q-1 36 -12.5 69
t-32.5 58.5t-51 41t-68 15.5q-39 0 -69 -15.5t-51 -41t-33.5 -59t-16.5 -68.5h334zM155 722q1 -20 10 -35.5t23 -26t32 -15.5t37 -5q38 0 69 21.5t37 60.5h39q-8 -60 -46.5 -93.5t-98.5 -33.5q-61 0 -98.5 33t-42.5 94h39z" />
    <glyph glyph-name="uni04D8" unicode="&#x4d8;" horiz-adv-x="712" 
d="M351 671q-39 0 -75.5 -13.5t-67 -37t-53 -55t-33.5 -67.5h-68q11 53 39.5 96t69 73t89 46t99.5 16q88 0 150.5 -30.5t101.5 -82t57 -119t18 -140.5q0 -74 -20 -141t-61 -118t-103.5 -81.5t-146.5 -30.5q-69 0 -126.5 25t-99 74.5t-64.5 123t-23 170.5h575q-3 55 -17 108
t-44 93.5t-78 65.5t-119 25zM347 43q65 0 112.5 23t79.5 62t48.5 89t20.5 104h-502q0 -54 17.5 -104t49.5 -89t76.5 -62t97.5 -23z" />
    <glyph glyph-name="afii10846" unicode="&#x4d9;" horiz-adv-x="529" 
d="M262 -13q-62 0 -106.5 25t-72.5 65.5t-40.5 93t-10.5 106.5h400q0 34 -9.5 70.5t-30.5 65.5t-53 48t-77 19q-69 0 -108 -36t-54 -96h-63q20 88 73.5 136t151.5 48q61 0 105.5 -21.5t72.5 -59t41.5 -87t13.5 -104.5q0 -51 -13.5 -100t-41.5 -87.5t-72.5 -62t-105.5 -23.5z
M262 40q39 0 69 15.5t51 41t33.5 59t16.5 68.5h-334q1 -36 12.5 -69t32.5 -58.5t51 -41t68 -15.5z" />
    <glyph glyph-name="uni04DC" unicode="&#x4dc;" horiz-adv-x="990" 
d="M313 406l-296 308h92l352 -376v376h68v-376l352 376h92l-296 -308l321 -406h-88l-281 356l-100 -104v-252h-68v252l-100 104l-281 -356h-88zM373 889h67v-101h-67v101zM549 889h68v-101h-68v101z" />
    <glyph glyph-name="uni04DD" unicode="&#x4dd;" horiz-adv-x="737" 
d="M216 300l-201 216h85l237 -264v264h63v-263l237 263h85l-201 -216l223 -300h-77l-190 258l-77 -80v-178h-63v178l-77 80l-190 -258h-77zM246 706h67v-101h-67v101zM422 706h68v-101h-68v101z" />
    <glyph glyph-name="uni04DE" unicode="&#x4de;" horiz-adv-x="627" 
d="M324 -15q-66 0 -119 16.5t-89.5 48t-56 77t-19.5 102.5v6h65q0 -99 61 -147t163 -48q45 0 81 13.5t60.5 36.5t38 53.5t13.5 64.5q0 31 -12.5 56.5t-34.5 43.5t-51.5 28t-63.5 10h-114v58h114q28 0 54 8t46 23.5t31.5 39t11.5 54.5q0 37 -13.5 64t-36.5 44.5t-55 26
t-68 8.5q-42 0 -78 -10t-62.5 -30.5t-42 -51t-18.5 -70.5h-66q3 55 23.5 96t55.5 68.5t82.5 41t103.5 13.5q50 0 94.5 -11.5t77.5 -35.5t52 -60.5t19 -86.5q0 -28 -9 -52.5t-24 -44t-34 -33.5t-38 -21v-3q57 -15 90.5 -57.5t33.5 -114.5q0 -33 -13.5 -72t-44.5 -73
t-82 -56.5t-126 -22.5zM191 889h67v-101h-67v101zM367 889h68v-101h-68v101z" />
    <glyph glyph-name="uni04DF" unicode="&#x4df;" horiz-adv-x="485" 
d="M241 -14q-103 0 -155.5 47.5t-57.5 128.5h63q4 -28 14 -51t28 -39t44.5 -24.5t64.5 -8.5q43 0 70 10t42.5 26.5t21.5 36.5t6 40q0 39 -25.5 66t-84.5 27h-86v48h71q45 0 77 24t32 70q0 14 -4.5 30t-18.5 29.5t-39 22t-65 8.5q-71 0 -102.5 -31.5t-36.5 -79.5h-62
q4 47 22 78.5t45 50.5t62 27t73 8q40 0 74.5 -7.5t60.5 -24t41 -43t15 -64.5q0 -23 -7 -42t-18.5 -34t-26.5 -25t-31 -13v-2q18 -3 36 -11t32 -22.5t23 -36t9 -51.5q0 -42 -17 -73.5t-45.5 -52.5t-66 -31.5t-78.5 -10.5zM120 706h67v-101h-67v101zM296 706h68v-101h-68v101z
" />
    <glyph glyph-name="uni04E2" unicode="&#x4e2;" horiz-adv-x="710" 
d="M72 714h68v-641l410 641h88v-714h-68v641l-410 -641h-88v714zM191 862h328v-45h-328v45z" />
    <glyph glyph-name="uni04E3" unicode="&#x4e3;" horiz-adv-x="544" 
d="M59 516h63v-442l285 442h78v-516h-63v442l-285 -442h-78v516zM108 679h328v-45h-328v45z" />
    <glyph glyph-name="uni04E4" unicode="&#x4e4;" horiz-adv-x="710" 
d="M72 714h68v-641l410 641h88v-714h-68v641l-410 -641h-88v714zM233 889h67v-101h-67v101zM409 889h68v-101h-68v101z" />
    <glyph glyph-name="uni04E5" unicode="&#x4e5;" horiz-adv-x="544" 
d="M59 516h63v-442l285 442h78v-516h-63v442l-285 -442h-78v516zM150 706h67v-101h-67v101zM326 706h68v-101h-68v101z" />
    <glyph glyph-name="uni04E6" unicode="&#x4e6;" horiz-adv-x="741" 
d="M371 -14q-84 0 -147.5 30.5t-105.5 81.5t-63 118t-21 141q0 73 21 140.5t63 119t105.5 82t147.5 30.5t147 -30.5t105 -82t63 -119t21 -140.5q0 -74 -21 -141t-63 -118t-105 -81.5t-147 -30.5zM371 43q70 0 121 27t83.5 71.5t48 100.5t15.5 115q0 58 -15.5 114.5t-48 101
t-83.5 71.5t-121 27q-71 0 -122 -27t-83.5 -71.5t-48 -101t-15.5 -114.5q0 -59 15.5 -115t48 -100.5t83.5 -71.5t122 -27zM248 889h67v-101h-67v101zM424 889h68v-101h-68v101z" />
    <glyph glyph-name="uni04E7" unicode="&#x4e7;" 
d="M278 -14q-59 0 -104.5 21.5t-76.5 58.5t-47 86.5t-16 105.5q0 55 16 105t47 87t76.5 59t104.5 22t104.5 -22t76.5 -59t47 -87t16 -105q0 -56 -16 -105.5t-47 -86.5t-76.5 -58.5t-104.5 -21.5zM278 38q45 0 79 19t56.5 50t34 70.5t11.5 80.5t-11.5 80.5t-34 70.5t-56.5 50
t-79 19t-79 -19t-56.5 -50t-34 -70.5t-11.5 -80.5t11.5 -80.5t34 -70.5t56.5 -50t79 -19zM156 706h67v-101h-67v101zM332 706h68v-101h-68v101z" />
    <glyph glyph-name="uni04E8" unicode="&#x4e8;" horiz-adv-x="741" 
d="M371 -14q-84 0 -147.5 30.5t-105.5 81.5t-63 118t-21 141q0 73 21 140.5t63 119t105.5 82t147.5 30.5t147 -30.5t105 -82t63 -119t21 -140.5q0 -74 -21 -141t-63 -118t-105 -81.5t-147 -30.5zM371 43q68 0 117.5 25t82 66.5t49.5 95t19 110.5h-537q2 -57 18.5 -110.5
t49.5 -95t83 -66.5t118 -25zM637 398q-5 53 -23 102t-50.5 87t-80.5 61t-112 23q-65 0 -113 -23t-80.5 -61t-50.5 -87t-23 -102h533z" />
    <glyph glyph-name="uni04E9" unicode="&#x4e9;" 
d="M278 -14q-59 0 -104.5 21.5t-76.5 58.5t-47 86.5t-16 105.5q0 55 16 105t47 87t76.5 59t104.5 22t104.5 -22t76.5 -59t47 -87t16 -105q0 -56 -16 -105.5t-47 -86.5t-76.5 -58.5t-104.5 -21.5zM278 38q43 0 76 17.5t55.5 46t34.5 66t14 76.5h-361q2 -39 14.5 -76.5t35 -66
t55.5 -46t76 -17.5zM456 297q-5 36 -18.5 68.5t-36 57.5t-53.5 40t-70 15q-40 0 -71 -15t-53 -40t-35.5 -57.5t-18.5 -68.5h356z" />
    <glyph glyph-name="uni04EE" unicode="&#x4ee;" horiz-adv-x="588" 
d="M138 -8q-24 0 -43.5 3t-30.5 7v60q13 -5 31 -8.5t42 -3.5q38 0 63.5 24t49.5 75l9 19l-265 546h73l232 -474l226 474h72l-281 -582q-22 -46 -43 -73.5t-42.5 -42.5t-44 -19.5t-48.5 -4.5zM130 862h328v-45h-328v45z" />
    <glyph glyph-name="uni04EF" unicode="&#x4ef;" horiz-adv-x="463" 
d="M101 -190q-19 1 -29.5 1.5t-18.5 3.5v53q11 -2 21.5 -3.5t21.5 -1.5q21 0 34.5 6t23.5 16.5t17 25.5t15 33l22 58l-206 514h67l170 -440l159 440h63l-224 -594q-14 -33 -26 -54.5t-26.5 -34t-34 -18t-49.5 -5.5zM67 679h328v-45h-328v45z" />
    <glyph glyph-name="uni04F0" unicode="&#x4f0;" horiz-adv-x="588" 
d="M138 -8q-24 0 -43.5 3t-30.5 7v60q13 -5 31 -8.5t42 -3.5q38 0 63.5 24t49.5 75l9 19l-265 546h73l232 -474l226 474h72l-281 -582q-22 -46 -43 -73.5t-42.5 -42.5t-44 -19.5t-48.5 -4.5zM172 889h67v-101h-67v101zM348 889h68v-101h-68v101z" />
    <glyph glyph-name="uni04F1" unicode="&#x4f1;" horiz-adv-x="463" 
d="M101 -190q-19 1 -29.5 1.5t-18.5 3.5v53q11 -2 21.5 -3.5t21.5 -1.5q21 0 34.5 6t23.5 16.5t17 25.5t15 33l22 58l-206 514h67l170 -440l159 440h63l-224 -594q-14 -33 -26 -54.5t-26.5 -34t-34 -18t-49.5 -5.5zM109 706h67v-101h-67v101zM285 706h68v-101h-68v101z" />
    <glyph glyph-name="uni04F2" unicode="&#x4f2;" horiz-adv-x="588" 
d="M138 -8q-24 0 -43.5 3t-30.5 7v60q13 -5 31 -8.5t42 -3.5q38 0 63.5 24t49.5 75l9 19l-265 546h73l232 -474l226 474h72l-281 -582q-22 -46 -43 -73.5t-42.5 -42.5t-44 -19.5t-48.5 -4.5zM434 912h76l-126 -141h-51zM278 912h76l-126 -141h-50z" />
    <glyph glyph-name="uni04F3" unicode="&#x4f3;" horiz-adv-x="463" 
d="M101 -190q-19 1 -29.5 1.5t-18.5 3.5v53q11 -2 21.5 -3.5t21.5 -1.5q21 0 34.5 6t23.5 16.5t17 25.5t15 33l22 58l-206 514h67l170 -440l159 440h63l-224 -594q-14 -33 -26 -54.5t-26.5 -34t-34 -18t-49.5 -5.5zM356 729h76l-126 -141h-51zM200 729h76l-126 -141h-50z
" />
    <glyph glyph-name="uni04F4" unicode="&#x4f4;" horiz-adv-x="630" 
d="M490 325q-15 -4 -42 -9t-58.5 -9.5t-63 -8t-55.5 -3.5q-77 0 -122.5 18.5t-69.5 48t-31 66t-7 72.5v214h68v-210q0 -22 4 -48t20 -48.5t46.5 -38t84.5 -15.5q32 0 66.5 3.5t65.5 8t55.5 9.5t38.5 8v331h68v-714h-68v325zM193 889h67v-101h-67v101zM369 889h68v-101h-68
v101z" />
    <glyph glyph-name="uni04F5" unicode="&#x4f5;" horiz-adv-x="498" 
d="M376 225q-15 -6 -34.5 -11.5t-42 -10t-46.5 -7t-48 -2.5q-78 0 -120.5 38t-42.5 128v156h63v-163q0 -38 10.5 -58.5t27 -30t36.5 -11.5t39 -2q41 0 85.5 9.5t72.5 21.5v234h63v-516h-63v225zM127 706h67v-101h-67v101zM303 706h68v-101h-68v101z" />
    <glyph glyph-name="uni04F8" unicode="&#x4f8;" horiz-adv-x="846" 
d="M72 714h68v-302h249q100 0 156 -55t56 -151t-56 -151t-156 -55h-317v714zM374 58q75 0 117 39.5t42 108.5t-42 108.5t-117 39.5h-234v-296h234zM706 714h68v-714h-68v714zM301 889h67v-101h-67v101zM477 889h68v-101h-68v101z" />
    <glyph glyph-name="uni04F9" unicode="&#x4f9;" horiz-adv-x="667" 
d="M57 516h63v-207h167q75 0 119 -40t44 -113t-44 -114.5t-119 -41.5h-230v516zM272 53q54 0 84.5 26t30.5 77t-30.5 75.5t-84.5 24.5h-152v-203h152zM547 516h63v-516h-63v516zM211 706h67v-101h-67v101zM387 706h68v-101h-68v101z" />
    <glyph glyph-name="afii61352" unicode="&#x2116;" horiz-adv-x="994" 
d="M71 691h76l376 -581h2v581h68v-691h-76l-376 581h-2v-581h-68v691zM664 203h280v-53h-280v53zM802 272q-66 0 -102.5 38t-36.5 107t37 107t100 38q66 0 104.5 -38t38.5 -107q0 -67 -38.5 -106t-102.5 -39zM801 316q39 0 64.5 26.5t25.5 74.5t-25.5 74.5t-62.5 26.5
t-62.5 -26.5t-25.5 -74.5q0 -46 25.5 -73.5t60.5 -27.5z" />
    <glyph glyph-name="Aogonek" unicode="&#x104;" horiz-adv-x="630" 
d="M550 -210q-54 0 -75 23t-21 59q0 7 3.5 19.5t15.5 30t34 38.5q22 19 57 40l-87 222h-325l-86 -222h-72l287 714h76l280 -714h-34q-25 -20 -42 -37q-17 -18 -27 -33t-13.5 -28t-3.5 -26q0 -24 13.5 -35.5t30.5 -11.5q19 0 33 13.5t22 27.5l29 -13q-22 -37 -45.5 -52
t-49.5 -15zM454 280l-138 366l-143 -366h281z" />
    <glyph glyph-name="aogonek" unicode="&#x105;" horiz-adv-x="519" 
d="M431 -210q-54 0 -75 23t-21 59q0 7 3.5 19.5t15.5 30t34 38.5q22 20 59 41q-10 2 -17 5q-14 7 -22 19t-10.5 28.5t-2.5 36.5h-2q-17 -25 -34.5 -44.5t-39 -32.5t-49 -20t-65.5 -7q-36 0 -67.5 8.5t-55 27t-37 47t-13.5 67.5q0 54 24 84.5t63.5 46.5t89 22.5t100.5 12.5
q20 2 35 5t25 10.5t15.5 20.5t5.5 34q0 32 -10.5 52.5t-29 32.5t-43 16.5t-52.5 4.5q-60 0 -98 -28.5t-40 -91.5h-63q3 45 19 78t43.5 54t64.5 31t82 10q34 0 68 -6.5t61 -24.5t44 -50.5t17 -84.5v-274q0 -38 37 -38q11 0 20 4v-53q-11 -2 -20 -3q-2 -1 -6 -1
q-25 -20 -42 -37q-17 -18 -27 -33t-13.5 -28t-3.5 -26q0 -24 13.5 -35.5t30.5 -11.5q19 0 33 13.5t22 27.5l29 -13q-22 -37 -45.5 -52t-49.5 -15zM210 38q36 0 69 11t57.5 32t39 51t14.5 68v82h-2q-6 -11 -23 -16t-30 -7q-40 -7 -82.5 -12.5t-77.5 -16.5t-57.5 -31.5
t-22.5 -58.5q0 -24 9.5 -42.5t25.5 -32t37 -20.5t43 -7z" />
    <glyph glyph-name="Cacute" unicode="&#x106;" horiz-adv-x="704" 
d="M594 498q-9 41 -29.5 73.5t-50 54.5t-65 33.5t-74.5 11.5q-71 0 -122 -27t-83.5 -71.5t-48 -100.5t-15.5 -115q0 -58 15.5 -114.5t48 -101t83.5 -71.5t122 -27q50 0 90 18t69 49t47 72.5t23 89.5h68q-7 -66 -31 -119t-62 -90t-89.5 -57t-114.5 -20q-84 0 -147.5 30.5
t-105.5 81.5t-63 118t-21 141t21 141t63 118.5t105.5 82t147.5 30.5q51 0 99.5 -15t88 -44.5t66 -72.5t33.5 -99h-68zM320 786l105 141h78l-132 -141h-51z" />
    <glyph glyph-name="cacute" unicode="&#x107;" horiz-adv-x="519" 
d="M424 354q-13 58 -48 91t-98 33q-45 0 -79 -19t-56.5 -50t-34 -70.5t-11.5 -80.5t11.5 -80.5t34 -70.5t56.5 -50t79 -19q29 0 55 11t46 30.5t33 46.5t16 59h63q-13 -94 -69 -146.5t-144 -52.5q-59 0 -104.5 21.5t-76.5 58.5t-47 86.5t-16 105.5t16 105.5t47 86.5t76.5 59
t104.5 22q83 0 140.5 -44t68.5 -133h-63zM208 588l105 141h78l-132 -141h-51z" />
    <glyph glyph-name="Eogonek" unicode="&#x118;" horiz-adv-x="593" 
d="M475 -210q-54 0 -75 23t-21 59q0 7 3.5 19.5t15.5 30t34 38.5q22 19 57 40h-417v714h493v-58h-425v-258h398v-58h-398v-282h430v-58h-42q-25 -20 -42 -37q-17 -18 -27 -33t-13.5 -28t-3.5 -26q0 -24 13.5 -35.5t30.5 -11.5q19 0 33 13.5t22 27.5l29 -13
q-22 -37 -45.5 -52t-49.5 -15z" />
    <glyph glyph-name="eogonek" unicode="&#x119;" horiz-adv-x="519" 
d="M265 -210q-54 0 -75 23t-21 59q0 7 3.5 19.5t15.5 30t34 38.5q14 13 34 26q-54 2 -95 21q-44 22 -72 59.5t-41.5 87t-13.5 104.5q0 51 13.5 100t41.5 87.5t72.5 62t105.5 23.5q62 0 106 -25t71.5 -65.5t39.5 -93t10 -106.5h-397q0 -34 9.5 -70.5t30.5 -65.5t53 -48
t77 -19q69 0 108 36t54 96h63q-20 -88 -74 -136q-43 -38 -115 -46q-15 -13 -27 -25q-17 -18 -27 -33t-13.5 -28t-3.5 -26q0 -24 13.5 -35.5t30.5 -11.5q19 0 33 13.5t22 27.5l29 -13q-22 -37 -45.5 -52t-49.5 -15zM431 294q-1 36 -12.5 69t-32.5 58.5t-51 41t-68 15.5
q-39 0 -69 -15.5t-51 -41t-33.5 -59t-16.5 -68.5h334z" />
    <glyph glyph-name="Nacute" unicode="&#x143;" horiz-adv-x="704" 
d="M147 714l416 -604h2v604h68v-714h-76l-416 604h-2v-604h-68v714h76zM310 771l105 141h78l-132 -141h-51z" />
    <glyph glyph-name="nacute" unicode="&#x144;" horiz-adv-x="537" 
d="M122 516v-89h2q18 47 64 75.5t101 28.5q54 0 90.5 -14t58.5 -39.5t31 -62.5t9 -83v-332h-63v322q0 33 -6 61.5t-21 49.5t-40.5 33t-63.5 12t-67.5 -13.5t-50 -37t-32 -56t-12.5 -70.5v-301h-63v516h63zM207 588l105 141h78l-132 -141h-51z" />
    <glyph glyph-name="Sacute" unicode="&#x15a;" horiz-adv-x="630" 
d="M104 235q-1 -55 17 -92t49.5 -59t74.5 -31.5t92 -9.5q28 0 61 8t61.5 25.5t47.5 45t19 66.5q0 30 -13.5 52t-35 37t-47.5 24.5t-51 15.5l-159 39q-31 8 -60.5 20t-51.5 32t-35.5 49t-13.5 71q0 26 10 61t37.5 66t75.5 52.5t123 21.5q53 0 101 -14t84 -42t57.5 -69.5
t21.5 -96.5h-68q-2 41 -18.5 71.5t-43 51t-61 31t-72.5 10.5q-35 0 -67.5 -7.5t-57 -24t-39.5 -43.5t-15 -67q0 -25 8.5 -43.5t23.5 -31.5t34.5 -21t41.5 -13l174 -43q38 -10 71.5 -24.5t59 -36t40 -52.5t14.5 -75q0 -12 -2.5 -32t-12 -42.5t-27 -45.5t-48 -41.5t-75.5 -30
t-108 -11.5t-117 14.5t-92 44.5t-58.5 77t-17.5 113h68zM273 771l105 141h78l-132 -141h-51z" />
    <glyph glyph-name="sacute" unicode="&#x15b;" horiz-adv-x="481" 
d="M369 365q-1 29 -12 50.5t-29.5 35.5t-42.5 20.5t-51 6.5q-21 0 -42.5 -4.5t-39.5 -15t-29 -27.5t-11 -42q0 -21 10.5 -35.5t26.5 -24.5t35 -16.5t35 -10.5l84 -19q27 -4 53.5 -14.5t47 -27.5t33.5 -42t13 -59q0 -42 -19 -71.5t-48.5 -48t-66.5 -26.5t-73 -8
q-91 0 -147.5 43t-64.5 138h63q4 -64 46.5 -96.5t105.5 -32.5q23 0 47.5 5t45.5 17t34.5 30.5t13.5 45.5q0 23 -9.5 38.5t-25.5 26t-36.5 17.5t-41.5 12l-81 18q-31 8 -57 18.5t-45.5 26t-30.5 38t-11 55.5q0 39 17.5 67t45.5 45t62.5 25t68.5 8q39 0 72.5 -10t59 -31
t40.5 -52t17 -73h-63zM189 588l105 141h78l-132 -141h-51z" />
    <glyph glyph-name="Zacute" unicode="&#x179;" horiz-adv-x="574" 
d="M551 714v-60l-470 -596h480v-58h-556v60l470 596h-438v58h514zM235 771l105 141h78l-132 -141h-51z" />
    <glyph glyph-name="zacute" unicode="&#x17a;" horiz-adv-x="463" 
d="M446 53v-53h-431v51l337 412h-314v53h394v-45l-341 -418h355zM180 588l105 141h78l-132 -141h-51z" />
    <glyph glyph-name="Zdotaccent" unicode="&#x17b;" horiz-adv-x="574" 
d="M551 714v-60l-470 -596h480v-58h-556v60l470 596h-438v58h514zM253 889h68v-101h-68v101z" />
    <glyph glyph-name="zdotaccent" unicode="&#x17c;" horiz-adv-x="463" 
d="M446 53v-53h-431v51l337 412h-314v53h394v-45l-341 -418h355zM197 706h68v-101h-68v101z" />
    <glyph glyph-name="quotesinglbase.clone" horiz-adv-x="278" 
d="M183 106h-84v-106h42q1 -11 -1.5 -25.5t-8.5 -28t-15 -24.5t-22 -15v-43q23 6 39.5 20t27.5 32.5t16.5 40t5.5 43.5v106z" />
    <glyph glyph-name="quotesinglbase.mirror" horiz-adv-x="278" 
d="M94.9766 106h83.9795v-106h-41.9893q-1 -11 1.49902 -25.5q2.5 -14.5 8.49805 -28q5.99902 -13.5 14.9971 -24.5q8.99707 -11 21.9941 -15v-43q-22.9941 6 -39.4902 20t-27.4932 32.5t-16.4961 40t-5.49902 43.5v106z" />
    <glyph glyph-name="quotedblbase.clone" horiz-adv-x="370" 
d="M152 106h-84v-106h42q1 -11 -1.5 -25.5t-8.5 -28t-15 -24.5t-22 -15v-43q23 6 39.5 20t27.5 32.5t16.5 40t5.5 43.5v106zM306 106h-84v-106h42q1 -11 -1.5 -25.5t-8.5 -28t-15 -24.5t-22 -15v-43q23 6 39.5 20t27.5 32.5t16.5 40t5.5 43.5v106z" />
    <glyph glyph-name="quotedblbase.mirror" horiz-adv-x="370" 
d="M217.947 106h83.9785v-106h-41.9893q-1 -11 1.5 -25.5q2.49902 -14.5 8.49707 -28q5.99902 -13.5 14.9971 -24.5q8.99707 -11 21.9941 -15v-43q-22.9941 6 -39.4902 20t-27.4932 32.5t-16.4961 40q-5.49805 21.5 -5.49805 43.5v106zM63.9844 106h83.9795v-106h-41.9893
q-1 -11 1.49902 -25.5t8.49805 -28t14.9961 -24.5q8.99805 -11 21.9951 -15v-43q-22.9941 6 -39.4902 20t-27.4941 32.5q-10.9971 18.5 -16.4951 40q-5.49902 21.5 -5.49902 43.5v106z" />
    <glyph glyph-name="partialdiff.clone" horiz-adv-x="500" 
d="M233 -12q-47 0 -84 18.5t-62.5 49.5t-39 71.5t-13.5 84.5q0 43 13 82t38 68t61 46t82 17q49 0 92 -23t74 -61q0 13 0.5 26t0.5 26q0 42 -8.5 89.5t-29 88.5t-55 68t-86.5 27q-35 0 -60.5 -13t-51.5 -33l-36 43q32 28 67 43t78 15q48 0 85 -15.5t64 -42.5t45.5 -62.5
t29.5 -75.5t16 -81.5t5 -80.5q0 -55 -8 -120.5t-32 -122t-68.5 -94.5t-116.5 -38zM234 41q43 0 72 24t47 60t26 77.5t10 75.5q-27 36 -67 63.5t-88 27.5q-34 0 -59.5 -13t-43 -35t-26 -51t-8.5 -60q0 -30 8.5 -60t26 -54.5t43 -39.5t59.5 -15z" />
    <glyph glyph-name="partialdiff.mirror" horiz-adv-x="500" 
d="M266.935 -12q46.9893 0 83.9795 18.5q36.9912 18.5 62.4854 49.5q25.4932 31 38.9902 71.5t13.4971 84.5q0 43 -12.9971 82t-37.9912 68t-60.9844 46q-35.9922 17 -81.9805 17q-48.9883 0 -91.9775 -23t-73.9814 -61q0 13 -0.5 26t-0.5 26q0 42 8.49805 89.5
t28.9922 88.5q20.4951 41 54.9873 68q34.4912 27 86.4785 27q34.9912 0 60.4854 -13t51.4873 -33l35.9912 43q-31.9922 28 -66.9834 43t-77.9814 15q-47.9883 0 -84.9785 -15.5q-36.9912 -15.5 -63.9844 -42.5q-26.9941 -27 -45.4893 -62.5t-29.4932 -75.5
q-10.9971 -40 -15.9961 -81.5q-4.99805 -41.5 -4.99805 -80.5q0 -55 7.99805 -120.5t31.9922 -122t68.4824 -94.5q44.4893 -38 116.472 -38zM265.936 41q-42.9902 0 -71.9824 24q-28.9932 24 -46.9893 60q-17.9951 36 -25.9932 77.5t-9.99805 75.5q26.9941 36 66.9844 63.5
t87.9785 27.5q33.9912 0 59.4854 -13q25.4932 -13 42.9893 -35t25.9932 -51q8.49805 -29 8.49805 -60q0 -30 -8.49805 -60q-8.49707 -30 -25.9932 -54.5t-42.9893 -39.5q-25.4941 -15 -59.4854 -15z" />
    <glyph glyph-name="summation.clone" horiz-adv-x="547" 
d="M0 -163l331 452l-317 445v52h521v-58h-437l314 -439l-332 -446h467v-57h-547v51z" />
    <glyph glyph-name="summation.mirror" horiz-adv-x="547" 
d="M546.866 -163l-330.919 452l316.923 445v52h-520.873v-58h436.894l-313.924 -439l331.919 -446h-466.886v-57h546.866v51z" />
    <glyph glyph-name="radical.clone" horiz-adv-x="518" 
d="M78 123l-47 -22l-26 55l107 51l154 -326l186 905h65l-211 -1000h-65z" />
    <glyph glyph-name="radical.mirror" horiz-adv-x="518" 
d="M439.893 123l46.9883 -22l25.9941 55l-106.975 51l-153.962 -326l-185.954 905h-64.9844l210.948 -1000h64.9844z" />
    <glyph glyph-name="integral.clone" horiz-adv-x="307" 
d="M61 -213q-21 0 -40.5 11t-19.5 36q0 14 9.5 23t23.5 9q13 0 20 -6t11.5 -13t8.5 -13t10 -6q12 0 18.5 20t9.5 44t3.5 44l0.5 20q-1 74 -1 168v447q0 36 3.5 74t16.5 69.5t36.5 51.5t64.5 20q11 0 23.5 -2.5t23 -8.5t17 -15.5t6.5 -23.5q0 -17 -10.5 -25.5t-26.5 -8.5
q-14 0 -21 6t-11.5 13.5t-8.5 14t-11 6.5q-12 0 -18.5 -15.5t-10 -39t-4.5 -50t-1 -47.5v-567q0 -34 -2.5 -75t-14.5 -77t-36.5 -60t-68.5 -24z" />
    <glyph glyph-name="integral.mirror" horiz-adv-x="307" 
d="M245.939 -213q20.9951 0 40.4902 11q19.4961 11 19.4961 36q0 14 -9.49805 23t-23.4941 9q-12.9971 0 -19.9951 -6q-6.99902 -6 -11.4971 -13q-4.49902 -7 -8.49805 -13t-9.99805 -6q-11.9971 0 -18.4951 20q-6.49902 20 -9.49805 44t-3.49902 44l-0.5 20q1 74 1 168v447
q0 36 -3.49902 74t-16.4961 69.5t-36.4912 51.5t-64.4844 20q-10.9971 0 -23.4941 -2.5t-22.9941 -8.5q-10.498 -6 -16.9961 -15.5t-6.49805 -23.5q0 -17 10.4971 -25.5t26.4932 -8.5q13.9971 0 20.9951 6q6.99902 6 11.4971 13.5q4.49902 7.5 8.49805 14t10.998 6.5
q11.9961 0 18.4951 -15.5q6.49805 -15.5 9.99707 -39q3.5 -23.5 4.49902 -50q1 -26.5 1 -47.5v-567q0 -34 2.49902 -75q2.5 -41 14.4971 -77t36.4912 -60t68.4824 -24z" />
    <glyph glyph-name="approxequal.clone" horiz-adv-x="600" 
d="M39 99q4 25 12 49.5t22 43.5t35.5 30.5t51.5 11.5q33 0 70 -11.5t74 -25t72 -25t64 -11.5q36 0 55 23.5t26 55.5h40q-3 -26 -11 -49.5t-22.5 -42.5t-36 -30t-50.5 -11q-33 0 -70.5 11.5t-74.5 25.5t-72 25.5t-63 11.5q-35 0 -55.5 -25t-25.5 -57h-41zM39 265
q4 25 12 49.5t22 43.5t35.5 30.5t51.5 11.5q33 0 70 -11.5t74 -25t72 -25t64 -11.5q36 0 55 23.5t26 55.5h40q-3 -26 -11 -49.5t-22.5 -42.5t-36 -30t-50.5 -11q-33 0 -70.5 11.5t-74.5 25.5t-72 25.5t-63 11.5q-35 0 -55.5 -25t-25.5 -57h-41z" />
    <glyph glyph-name="approxequal.mirror" horiz-adv-x="600" 
d="M560.863 99q-3.99902 25 -11.9971 49.5t-21.9951 43.5q-13.9961 19 -35.4912 30.5t-51.4873 11.5q-32.9922 0 -69.9824 -11.5q-36.9912 -11.5 -73.9824 -25t-71.9824 -25t-63.9844 -11.5q-35.9912 0 -54.9863 23.5q-18.9961 23.5 -25.9941 55.5h-39.9902
q3 -26 10.998 -49.5t22.4941 -42.5t35.9912 -30t50.4873 -11q32.9922 0 70.4834 11.5q37.4902 11.5 74.4814 25.5t71.9824 25.5t62.9844 11.5q34.9922 0 55.4863 -25q20.4951 -25 25.4941 -57h40.9902zM560.863 265q-3.99902 25 -11.9971 49.5t-21.9951 43.5
q-13.9961 19 -35.4912 30.5t-51.4873 11.5q-32.9922 0 -69.9824 -11.5q-36.9912 -11.5 -73.9824 -25t-71.9824 -25t-63.9844 -11.5q-35.9912 0 -54.9863 23.5q-18.9961 23.5 -25.9941 55.5h-39.9902q3 -26 10.998 -49.5t22.4941 -42.5t35.9912 -30t50.4873 -11
q32.9922 0 70.4834 11.5q37.4902 11.5 74.4814 25.5t71.9824 25.5t62.9844 11.5q34.9922 0 55.4863 -25q20.4951 -25 25.4941 -57h40.9902z" />
    <glyph glyph-name="notequal.clone" horiz-adv-x="600" 
d="M139 15l60 113h-150v53h179l76 144h-255v53h284l75 141l46 -25l-62 -116h160v-53h-188l-77 -144h265v-53h-293l-73 -138z" />
    <glyph glyph-name="notequal.mirror" horiz-adv-x="600" 
d="M460.888 15l-59.9854 113h149.963v53h-178.956l-75.9814 144h254.938v53h-283.931l-74.9814 141l-45.9883 -25l61.9844 -116h-159.961v-53h187.954l76.9814 -144h-264.936v-53h292.929l72.9814 -138z" />
    <glyph glyph-name="clickdental" unicode="&#x1c0;" horiz-adv-x="222" 
d="M85 786v-999h53v999h-53z" />
    <glyph glyph-name="clicklateral" unicode="&#x1c1;" horiz-adv-x="444" 
d="M85 786v-999h53v999h-53zM307 786v-999h53v999h-53z" />
    <glyph glyph-name="centigrade" unicode="&#x2103;" horiz-adv-x="1104" 
d="M95 562q0 22 8 41t22.5 33.5t33.5 22.5t41 8t41 -8t33.5 -22.5t22.5 -33.5t8 -41t-8 -41t-22.5 -33.5t-33.5 -22.5t-41 -8q-45 0 -75 30t-30 75zM56 562q0 -30 11 -56.5t30.5 -46t46 -30.5t56.5 -11t56 11t45.5 30.5t31 46t11.5 56.5t-11.5 56t-31 45.5t-45.5 31
t-56 11.5t-56.5 -11.5t-46 -31t-30.5 -45.5t-11 -56zM994 498h68q-7 56 -33.5 99t-66 72.5t-88 44.5t-99.5 15q-84 0 -147.5 -30.5t-105.5 -82t-63 -118.5t-21 -141t21 -141t63 -118t105.5 -81.5t147.5 -30.5q63 0 114.5 20t89.5 57t62 90t31 119h-68q-5 -48 -23 -89.5
t-47 -72.5t-69 -49t-90 -18q-71 0 -122 27t-83.5 71.5t-48 101t-15.5 114.5q0 59 15.5 115t48 100.5t83.5 71.5t122 27q39 0 74.5 -11.5t65 -33.5t50 -54.5t29.5 -73.5z" />
    <glyph glyph-name="fahrenheit" unicode="&#x2109;" horiz-adv-x="937" 
d="M95 562q0 22 8 41t22.5 33.5t33.5 22.5t41 8t41 -8t33.5 -22.5t22.5 -33.5t8 -41t-8 -41t-22.5 -33.5t-33.5 -22.5t-41 -8q-45 0 -75 30t-30 75zM56 562q0 -30 11 -56.5t30.5 -46t46 -30.5t56.5 -11t56 11t45.5 30.5t31 46t11.5 56.5t-11.5 56t-31 45.5t-45.5 31
t-56 11.5t-56.5 -11.5t-46 -31t-30.5 -45.5t-11 -56zM472 714v-714h68v340h342v58h-342v258h385v58h-453z" />
    <glyph glyph-name="kelvin" unicode="&#x212a;" horiz-adv-x="648" 
d="M72 714v-714h68v245l137 127l297 -372h88l-334 419l319 295h-92l-415 -384v384h-68z" />
    <glyph glyph-name="angstrom" unicode="&#x212b;" horiz-adv-x="630" 
d="M-6 0l287 684h76l280 -684h-73l-84 212h-329l-85 -212h-72zM174 270h283l-141 355zM247 828q0 29 19.5 48.5t48.5 19.5t48.5 -19.5t19.5 -48.5t-19.5 -48.5t-48.5 -19.5t-48.5 19.5t-19.5 48.5zM209 828q0 -22 8 -41.5t22.5 -34t34 -23t41.5 -8.5t41.5 8.5t34 23t23 34
t8.5 41.5t-8.5 41.5t-23 34t-34 23t-41.5 8.5t-41.5 -8.5t-34 -23t-22.5 -34t-8 -41.5z" />
    <glyph glyph-name="Oneroman" unicode="&#x2160;" horiz-adv-x="222" 
d="M77 714v-714h68v714h-68z" />
    <glyph glyph-name="Tworoman" unicode="&#x2161;" horiz-adv-x="444" 
d="M77 714v-714h68v714h-68zM299 714v-714h68v714h-68z" />
    <glyph glyph-name="Threeroman" unicode="&#x2162;" horiz-adv-x="666" 
d="M77 714v-714h68v714h-68zM299 714v-714h68v714h-68zM521 714v-714h68v714h-68z" />
    <glyph glyph-name="Fourroman" unicode="&#x2163;" horiz-adv-x="815" 
d="M77 714v-714h68v714h-68zM216 714l264 -714h79l265 714h-72l-230 -639h-2l-232 639h-72z" />
    <glyph glyph-name="Fiveroman" unicode="&#x2164;" horiz-adv-x="593" 
d="M-6 714l264 -714h79l265 714h-72l-230 -639h-2l-232 639h-72z" />
    <glyph glyph-name="Sixroman" unicode="&#x2165;" horiz-adv-x="815" 
d="M-6 714l264 -714h79l265 714h-72l-230 -639h-2l-232 639h-72zM670 714v-714h68v714h-68z" />
    <glyph glyph-name="Sevenroman" unicode="&#x2166;" horiz-adv-x="1037" 
d="M-6 714l264 -714h79l265 714h-72l-230 -639h-2l-232 639h-72zM670 714v-714h68v714h-68zM892 714v-714h68v714h-68z" />
    <glyph glyph-name="Eightroman" unicode="&#x2167;" horiz-adv-x="1259" 
d="M-6 714l264 -714h79l265 714h-72l-230 -639h-2l-232 639h-72zM670 714v-714h68v714h-68zM892 714v-714h68v714h-68zM1114 714v-714h68v714h-68z" />
    <glyph glyph-name="Nineroman" unicode="&#x2168;" horiz-adv-x="796" 
d="M77 714v-714h68v714h-68zM225 714l242 -346l-256 -368h76l220 315l217 -315h82l-258 366l244 348h-76l-209 -299l-202 299h-80z" />
    <glyph glyph-name="Tenroman" unicode="&#x2169;" horiz-adv-x="574" 
d="M3 714l242 -346l-256 -368h76l220 315l217 -315h82l-258 366l244 348h-76l-209 -299l-202 299h-80z" />
    <glyph glyph-name="Elevenroman" unicode="&#x216a;" horiz-adv-x="796" 
d="M3 714l242 -346l-256 -368h76l220 315l217 -315h82l-258 366l244 348h-76l-209 -299l-202 299h-80zM651 714v-714h68v714h-68z" />
    <glyph glyph-name="Twelveroman" unicode="&#x216b;" horiz-adv-x="1018" 
d="M3 714l242 -346l-256 -368h76l220 315l217 -315h82l-258 366l244 348h-76l-209 -299l-202 299h-80zM651 714v-714h68v714h-68zM873 714v-714h68v714h-68z" />
    <glyph glyph-name="uni216C" unicode="&#x216c;" horiz-adv-x="537" 
d="M72 714v-714h468v58h-400v656h-68z" />
    <glyph glyph-name="uni216D" unicode="&#x216d;" horiz-adv-x="704" 
d="M594 498h68q-7 56 -33.5 99t-66 72.5t-88 44.5t-99.5 15q-84 0 -147.5 -30.5t-105.5 -82t-63 -118.5t-21 -141t21 -141t63 -118t105.5 -81.5t147.5 -30.5q63 0 114.5 20t89.5 57t62 90t31 119h-68q-5 -48 -23 -89.5t-47 -72.5t-69 -49t-90 -18q-71 0 -122 27t-83.5 71.5
t-48 101t-15.5 114.5q0 59 15.5 115t48 100.5t83.5 71.5t122 27q39 0 74.5 -11.5t65 -33.5t50 -54.5t29.5 -73.5z" />
    <glyph glyph-name="uni216E" unicode="&#x216e;" horiz-adv-x="685" 
d="M72 714v-714h247q163 4 245.5 91.5t82.5 265.5t-82.5 265.5t-245.5 91.5h-247zM140 58v598h145q77 0 132.5 -16.5t91.5 -52.5t53 -93t17 -137t-17 -137t-53 -93t-91.5 -52.5t-132.5 -16.5h-145z" />
    <glyph glyph-name="uni216F" unicode="&#x216f;" horiz-adv-x="833" 
d="M170 714l237 -626l246 626h100v-714h-68v617h-2l-244 -617h-64l-235 617h-2v-617h-68v714h100z" />
    <glyph glyph-name="oneroman" unicode="&#x2170;" horiz-adv-x="185" 
d="M61 714v-101h63v101h-63zM61 516v-516h63v516h-63z" />
    <glyph glyph-name="tworoman" unicode="&#x2171;" horiz-adv-x="370" 
d="M61 714v-101h63v101h-63zM61 516v-516h63v516h-63zM246 714v-101h63v101h-63zM246 516v-516h63v516h-63z" />
    <glyph glyph-name="threeroman" unicode="&#x2172;" horiz-adv-x="555" 
d="M61 714v-101h63v101h-63zM61 516v-516h63v516h-63zM246 714v-101h63v101h-63zM246 516v-516h63v516h-63zM431 714v-101h63v101h-63zM431 516v-516h63v516h-63z" />
    <glyph glyph-name="fourroman" unicode="&#x2173;" horiz-adv-x="648" 
d="M61 714v-101h63v101h-63zM61 516v-516h63v516h-63zM187 516l199 -516h67l193 516h-65l-160 -453h-2l-162 453h-70z" />
    <glyph glyph-name="fiveroman" unicode="&#x2174;" horiz-adv-x="463" 
d="M2 516l199 -516h67l193 516h-65l-160 -453h-2l-162 453h-70z" />
    <glyph glyph-name="sixroman" unicode="&#x2175;" horiz-adv-x="648" 
d="M2 516l199 -516h67l193 516h-65l-160 -453h-2l-162 453h-70zM524 714v-101h63v101h-63zM524 516v-516h63v516h-63z" />
    <glyph glyph-name="sevenroman" unicode="&#x2176;" horiz-adv-x="833" 
d="M2 516l199 -516h67l193 516h-65l-160 -453h-2l-162 453h-70zM524 714v-101h63v101h-63zM524 516v-516h63v516h-63zM709 714v-101h63v101h-63zM709 516v-516h63v516h-63z" />
    <glyph glyph-name="eightroman" unicode="&#x2177;" horiz-adv-x="1018" 
d="M2 516l199 -516h67l193 516h-65l-160 -453h-2l-162 453h-70zM524 714v-101h63v101h-63zM524 516v-516h63v516h-63zM709 714v-101h63v101h-63zM709 516v-516h63v516h-63zM894 714v-101h63v101h-63zM894 516v-516h63v516h-63z" />
    <glyph glyph-name="nineroman" unicode="&#x2178;" horiz-adv-x="666" 
d="M61 714v-101h63v101h-63zM61 516v-516h63v516h-63zM386 268l-200 -268h78l159 217l162 -217h80l-201 269l186 247h-79l-144 -196l-147 196h-79z" />
    <glyph glyph-name="tenroman" unicode="&#x2179;" horiz-adv-x="481" 
d="M201 268l-200 -268h78l159 217l162 -217h80l-201 269l186 247h-79l-144 -196l-147 196h-79z" />
    <glyph glyph-name="elevenroman" unicode="&#x217a;" horiz-adv-x="666" 
d="M201 268l-200 -268h78l159 217l162 -217h80l-201 269l186 247h-79l-144 -196l-147 196h-79zM542 714v-101h63v101h-63zM542 516v-516h63v516h-63z" />
    <glyph glyph-name="twelveroman" unicode="&#x217b;" horiz-adv-x="851" 
d="M201 268l-200 -268h78l159 217l162 -217h80l-201 269l186 247h-79l-144 -196l-147 196h-79zM542 714v-101h63v101h-63zM542 516v-516h63v516h-63zM727 714v-101h63v101h-63zM727 516v-516h63v516h-63z" />
    <glyph glyph-name="uni217C" unicode="&#x217c;" horiz-adv-x="185" 
d="M61 714v-714h63v714h-63z" />
    <glyph glyph-name="uni217D" unicode="&#x217d;" horiz-adv-x="519" 
d="M424 354h63q-11 89 -68.5 133t-140.5 44q-59 0 -104.5 -22t-76.5 -59t-47 -86.5t-16 -105.5t16 -105.5t47 -86.5t76.5 -58.5t104.5 -21.5q88 0 144 52.5t69 146.5h-63q-3 -32 -16 -59t-33 -46.5t-46 -30.5t-55 -11q-45 0 -79 19t-56.5 50t-34 70.5t-11.5 80.5t11.5 80.5
t34 70.5t56.5 50t79 19q63 0 98 -33t48 -91z" />
    <glyph glyph-name="uni217E" unicode="&#x217e;" horiz-adv-x="574" 
d="M514 0v714h-63v-296h-2q-10 28 -28.5 49t-42.5 35.5t-51.5 21.5t-56.5 7q-59 0 -102.5 -22t-72.5 -59.5t-43 -87t-14 -104.5t14 -104.5t43 -87t72.5 -59t102.5 -21.5q28 0 56.5 8t53.5 22.5t44.5 35.5t29.5 46h2v-98h58zM101 258q0 40 9.5 79.5t30 70.5t52.5 50.5
t77 19.5q50 0 84.5 -19.5t56 -50.5t31 -70.5t9.5 -79.5t-9.5 -79.5t-31 -70.5t-56 -50.5t-84.5 -19.5q-45 0 -77 19.5t-52.5 50.5t-30 70.5t-9.5 79.5z" />
    <glyph glyph-name="thousandroman" unicode="&#x217f;" horiz-adv-x="833" 
d="M60 516v-516h63v288q0 41 9 75.5t27.5 60t48 40t69.5 14.5q30 0 51 -10t33.5 -27.5t18 -41t5.5 -49.5v-350h63v292q0 36 6.5 69.5t22.5 59.5t43 41.5t68 15.5q68 0 95 -33.5t27 -97.5v-347h63v350q0 181 -171 181q-51 0 -96 -25t-68 -76q-14 51 -55.5 76t-92.5 25
q-63 0 -103.5 -27t-65.5 -75h-3v87h-58z" />
    <glyph glyph-name="Dcroat" unicode="&#x110;" horiz-adv-x="685" 
d="M72 714v-321h-72v-45h72v-348h247q163 4 245.5 91.5t82.5 265.5t-82.5 265.5t-245.5 91.5h-247zM140 393v263h145q77 0 132.5 -16.5t91.5 -52.5t53 -93t17 -137t-17 -137t-53 -93t-91.5 -52.5t-132.5 -16.5h-145v290h236v45h-236z" />
    <glyph glyph-name="Ibreve" unicode="&#x12c;" horiz-adv-x="222" 
d="M77 714v-714h68v714h-68zM7 891h-39q5 -61 42.5 -94t98.5 -33q60 0 98.5 33.5t46.5 93.5h-39q-6 -39 -37 -60.5t-69 -21.5q-19 0 -37 5t-32 15.5t-23 26t-10 35.5z" />
    <glyph glyph-name="ibreve" unicode="&#x12d;" horiz-adv-x="185" 
d="M61 0h63v516h-63v-516zM-11 696h-39q5 -61 42.5 -94t98.5 -33q60 0 98.5 33.5t46.5 93.5h-39q-6 -39 -37 -60.5t-69 -21.5q-19 0 -37 5t-32 15.5t-23 26t-10 35.5z" />
    <glyph glyph-name="Idot" unicode="&#x130;" horiz-adv-x="222" 
d="M77 714v-714h68v714h-68zM77 764h68v101h-68v-101z" />
    <glyph glyph-name="IJ" unicode="&#x132;" horiz-adv-x="722" 
d="M77 714v-714h68v714h-68zM582 714v-486q0 -49 -6 -84t-21 -57.5t-41 -33t-66 -10.5q-53 0 -80.5 20.5t-39.5 49.5t-14 61t-3 55h-68q0 -47 8 -91t30 -77.5t61 -54t100 -20.5q58 0 97.5 13t64 39t35.5 66t11 95v515h-68z" />
    <glyph glyph-name="ij" unicode="&#x133;" horiz-adv-x="370" 
d="M61 714v-101h63v101h-63zM61 516v-516h63v516h-63zM246 714v-101h63v101h-63zM246 516v-578q0 -32 -10 -53.5t-47 -21.5q-7 -1 -16 -0.5t-17 1.5v-52q11 0 21.5 -1t21.5 -1q33 0 54.5 11.5t34 31t17 45.5t4.5 55v563h-63z" />
    <glyph glyph-name="Jcircumflex" unicode="&#x134;" horiz-adv-x="500" 
d="M360 714v-486q0 -49 -6 -84t-21 -57.5t-41 -33t-66 -10.5q-53 0 -80.5 20.5t-39.5 49.5t-14 61t-3 55h-68q0 -47 8 -91t30 -77.5t61 -54t100 -20.5q58 0 97.5 13t64 39t35.5 66t11 95v515h-68zM552 753l-114 141h-69l-113 -141h57l88 102l86 -102h65z" />
    <glyph glyph-name="napostrophe" unicode="&#x149;" horiz-adv-x="698" 
d="M169 720h-84v-106h42q1 -12 -1.5 -26.5t-8.5 -28.5t-15 -24.5t-22 -14.5v-43q23 6 39.5 20t27.5 32.5t16.5 40t5.5 43.5v107zM220 516v-516h63v301q1 38 12.5 70.5t32 56t50 37t67.5 13.5t63.5 -12t40.5 -33t21 -49.5t6 -61.5v-322h63v332q0 46 -9 83t-31 62.5
t-58.5 39.5t-90.5 14q-55 0 -101 -28.5t-64 -75.5h-2v89h-63z" />
    <glyph glyph-name="clickretroflex" unicode="&#x1c3;" horiz-adv-x="241" 
d="M79 0h84v106h-84v-106zM87 501l15 -323h38l15 323v213h-68v-213z" />
    <glyph glyph-name="DZcaron" unicode="&#x1c4;" horiz-adv-x="1259" 
d="M72 714v-714h247q163 4 245.5 91.5t82.5 265.5t-82.5 265.5t-245.5 91.5h-247zM140 58v598h145q77 0 132.5 -16.5t91.5 -52.5t53 -93t17 -137t-17 -137t-53 -93t-91.5 -52.5t-132.5 -16.5h-145zM722 714v-58h438l-470 -596v-60h556v58h-480l470 596v60h-514zM820 905
l113 -141h69l114 141h-58l-88 -102l-86 102h-64z" />
    <glyph glyph-name="Dzcaron" unicode="&#x1c5;" horiz-adv-x="1148" 
d="M72 714v-714h247q163 4 245.5 91.5t82.5 265.5t-82.5 265.5t-245.5 91.5h-247zM140 58v598h145q77 0 132.5 -16.5t91.5 -52.5t53 -93t17 -137t-17 -137t-53 -93t-91.5 -52.5t-132.5 -16.5h-145zM776 53l341 418v45h-394v-53h314l-337 -412v-51h431v53h-355zM767 710
l113 -141h69l114 141h-58l-88 -102l-86 102h-64z" />
    <glyph glyph-name="dzcaron" unicode="&#x1c6;" horiz-adv-x="1037" 
d="M514 0v714h-63v-296h-2q-10 28 -28.5 49t-42.5 35.5t-51.5 21.5t-56.5 7q-59 0 -102.5 -22t-72.5 -59.5t-43 -87t-14 -104.5t14 -104.5t43 -87t72.5 -59t102.5 -21.5q28 0 56.5 8t53.5 22.5t44.5 35.5t29.5 46h2v-98h58zM101 258q0 40 9.5 79.5t30 70.5t52.5 50.5
t77 19.5q50 0 84.5 -19.5t56 -50.5t31 -70.5t9.5 -79.5t-9.5 -79.5t-31 -70.5t-56 -50.5t-84.5 -19.5q-45 0 -77 19.5t-52.5 50.5t-30 70.5t-9.5 79.5zM665 53l341 418v45h-394v-53h314l-337 -412v-51h431v53h-355zM656 710l113 -141h69l114 141h-58l-88 -102l-86 102h-64z
" />
    <glyph glyph-name="LJ" unicode="&#x1c7;" horiz-adv-x="1037" 
d="M72 714v-714h468v58h-400v656h-68zM897 714v-486q0 -49 -6 -84t-21 -57.5t-41 -33t-66 -10.5q-53 0 -80.5 20.5t-39.5 49.5t-14 61t-3 55h-68q0 -47 8 -91t30 -77.5t61 -54t100 -20.5q58 0 97.5 13t64 39t35.5 66t11 95v515h-68z" />
    <glyph glyph-name="Lj" unicode="&#x1c8;" horiz-adv-x="722" 
d="M72 714v-714h468v58h-400v656h-68zM598 714v-101h63v101h-63zM598 516v-578q0 -32 -10 -53.5t-47 -21.5q-7 -1 -16 -0.5t-17 1.5v-52q11 0 21.5 -1t21.5 -1q33 0 54.5 11.5t34 31t17 45.5t4.5 55v563h-63z" />
    <glyph glyph-name="lj" unicode="&#x1c9;" horiz-adv-x="370" 
d="M61 714v-714h63v714h-63zM246 714v-101h63v101h-63zM246 516v-578q0 -32 -10 -53.5t-47 -21.5q-7 -1 -16 -0.5t-17 1.5v-52q11 0 21.5 -1t21.5 -1q33 0 54.5 11.5t34 31t17 45.5t4.5 55v563h-63z" />
    <glyph glyph-name="NJ" unicode="&#x1ca;" horiz-adv-x="1204" 
d="M71 714v-714h68v604h2l416 -604h76v714h-68v-604h-2l-416 604h-76zM1064 714v-486q0 -49 -6 -84t-21 -57.5t-41 -33t-66 -10.5q-53 0 -80.5 20.5t-39.5 49.5t-14 61t-3 55h-68q0 -47 8 -91t30 -77.5t61 -54t100 -20.5q58 0 97.5 13t64 39t35.5 66t11 95v515h-68z" />
    <glyph glyph-name="Nj" unicode="&#x1cb;" horiz-adv-x="889" 
d="M71 714v-714h68v604h2l416 -604h76v714h-68v-604h-2l-416 604h-76zM765 714v-101h63v101h-63zM765 516v-578q0 -32 -10 -53.5t-47 -21.5q-7 -1 -16 -0.5t-17 1.5v-52q11 0 21.5 -1t21.5 -1q33 0 54.5 11.5t34 31t17 45.5t4.5 55v563h-63z" />
    <glyph glyph-name="nj" unicode="&#x1cc;" horiz-adv-x="722" 
d="M59 516v-516h63v301q1 38 12.5 70.5t32 56t50 37t67.5 13.5t63.5 -12t40.5 -33t21 -49.5t6 -61.5v-322h63v332q0 46 -9 83t-31 62.5t-58.5 39.5t-90.5 14q-55 0 -101 -28.5t-64 -75.5h-2v89h-63zM598 714v-101h63v101h-63zM598 516v-578q0 -32 -10 -53.5t-47 -21.5
q-7 -1 -16 -0.5t-17 1.5v-52q11 0 21.5 -1t21.5 -1q33 0 54.5 11.5t34 31t17 45.5t4.5 55v563h-63z" />
    <glyph glyph-name="Acaron" unicode="&#x1cd;" horiz-adv-x="630" 
d="M173 280l143 366l138 -366h-281zM281 714l-287 -714h72l86 222h325l87 -222h73l-280 714h-76zM167 905l113 -141h69l114 141h-58l-88 -102l-86 102h-64z" />
    <glyph glyph-name="acaron" unicode="&#x1ce;" horiz-adv-x="519" 
d="M54 358h63q2 63 40 91.5t98 28.5q28 0 52.5 -4.5t43 -16.5t29 -32.5t10.5 -52.5q0 -21 -5.5 -34t-15.5 -20.5t-25 -10.5t-35 -5q-51 -6 -100.5 -12.5t-89 -22.5t-63.5 -46.5t-24 -84.5q0 -39 13.5 -67.5t37 -47t55 -27t67.5 -8.5q38 0 65.5 7t49 20t39 32.5t34.5 44.5h2
q0 -20 2.5 -36.5t10.5 -28.5t22.5 -18.5t38.5 -6.5q13 0 21.5 1t19.5 3v53q-9 -4 -20 -4q-37 0 -37 38v274q0 52 -17 84.5t-44 50.5t-61 24.5t-68 6.5q-45 0 -82 -10t-64.5 -31t-43.5 -54t-19 -78zM390 282v-82q0 -38 -14.5 -68t-39 -51t-57.5 -32t-69 -11q-22 0 -43 7
t-37 20.5t-25.5 32t-9.5 42.5q0 38 22.5 58.5t57.5 31.5t77.5 16.5t82.5 12.5q13 2 30 7t23 16h2zM123 725l113 -141h69l114 141h-58l-88 -102l-86 102h-64z" />
    <glyph glyph-name="Icaron" unicode="&#x1cf;" horiz-adv-x="222" 
d="M77 714v-714h68v714h-68zM-37 905l113 -141h69l114 141h-58l-88 -102l-86 102h-64z" />
    <glyph glyph-name="icaron" unicode="&#x1d0;" horiz-adv-x="185" 
d="M61 0h63v516h-63v-516zM-55 710l113 -141h69l114 141h-58l-88 -102l-86 102h-64z" />
    <glyph glyph-name="Ocaron" unicode="&#x1d1;" horiz-adv-x="741" 
d="M102 357q0 59 15.5 115t48 100.5t83.5 71.5t122 27t121.5 -27t83 -71.5t48 -100.5t15.5 -115q0 -58 -15.5 -114.5t-48 -101t-83 -71.5t-121.5 -27t-122 27t-83.5 71.5t-48 101t-15.5 114.5zM34 357q0 -74 21 -141t63 -118t105.5 -81.5t147.5 -30.5t147 30.5t105 81.5
t63 118t21 141t-21 141t-63 118.5t-105 82t-147 30.5t-147.5 -30.5t-105.5 -82t-63 -118.5t-21 -141zM222 920l113 -141h69l114 141h-58l-88 -102l-86 102h-64z" />
    <glyph glyph-name="ocaron" unicode="&#x1d2;" 
d="M278 478q45 0 79 -19t56.5 -50t34 -70.5t11.5 -80.5t-11.5 -80.5t-34 -70.5t-56.5 -50t-79 -19t-79 19t-56.5 50t-34 70.5t-11.5 80.5t11.5 80.5t34 70.5t56.5 50t79 19zM278 531q-59 0 -104.5 -22t-76.5 -59t-47 -86.5t-16 -105.5t16 -105.5t47 -86.5t76.5 -58.5
t104.5 -21.5t104.5 21.5t76.5 58.5t47 86.5t16 105.5t-16 105.5t-47 86.5t-76.5 59t-104.5 22zM130 725l113 -141h69l114 141h-58l-88 -102l-86 102h-64z" />
    <glyph glyph-name="Ucaron" unicode="&#x1d3;" horiz-adv-x="685" 
d="M65 714v-457q0 -55 15.5 -104.5t49 -86.5t86 -58.5t126.5 -21.5q75 0 127.5 21.5t86 58.5t49 86.5t15.5 104.5v457h-68v-442q0 -62 -14 -105.5t-41 -71t-66 -40t-89 -12.5q-49 0 -88 12.5t-66 40t-41 71t-14 105.5v442h-68zM194 905l113 -141h69l114 141h-58l-88 -102
l-86 102h-64z" />
    <glyph glyph-name="ucaron" unicode="&#x1d4;" horiz-adv-x="537" 
d="M478 0v516h-63v-271q0 -39 -9 -76.5t-28 -66.5t-48 -46.5t-70 -17.5q-75 0 -105.5 36t-32.5 106v336h-63v-335q0 -46 10 -82t31.5 -61t56 -38.5t83.5 -13.5q58 0 105.5 27.5t72.5 79.5h2v-93h58zM120 710l113 -141h69l114 141h-58l-88 -102l-86 102h-64z" />
    <glyph glyph-name="Udieresismacron" unicode="&#x1d5;" horiz-adv-x="685" 
d="M65 714v-457q0 -55 15.5 -104.5t49 -86.5t86 -58.5t126.5 -21.5q75 0 127.5 21.5t86 58.5t49 86.5t15.5 104.5v457h-68v-442q0 -62 -14 -105.5t-41 -71t-66 -40t-89 -12.5q-49 0 -88 12.5t-66 40t-41 71t-14 105.5v442h-68zM220 764h67v101h-67v-101zM396 764h68v101h-68
v-101zM178 915h328v45h-328v-45z" />
    <glyph glyph-name="udieresismacron" unicode="&#x1d6;" horiz-adv-x="537" 
d="M478 0v516h-63v-271q0 -39 -9 -76.5t-28 -66.5t-48 -46.5t-70 -17.5q-75 0 -105.5 36t-32.5 106v336h-63v-335q0 -46 10 -82t31.5 -61t56 -38.5t83.5 -13.5q58 0 105.5 27.5t72.5 79.5h2v-93h58zM146 569h67v101h-67v-101zM322 569h68v101h-68v-101zM104 717h328v45h-328
v-45z" />
    <glyph glyph-name="Udieresisacute" unicode="&#x1d7;" horiz-adv-x="685" 
d="M65 714v-457q0 -55 15.5 -104.5t49 -86.5t86 -58.5t126.5 -21.5q75 0 127.5 21.5t86 58.5t49 86.5t15.5 104.5v457h-68v-442q0 -62 -14 -105.5t-41 -71t-66 -40t-89 -12.5q-49 0 -88 12.5t-66 40t-41 71t-14 105.5v442h-68zM220 764h67v101h-67v-101zM396 764h68v101h-68
v-101zM373 920l132 141h-78l-105 -141h51z" />
    <glyph glyph-name="udieresisacute" unicode="&#x1d8;" horiz-adv-x="537" 
d="M478 0v516h-63v-271q0 -39 -9 -76.5t-28 -66.5t-48 -46.5t-70 -17.5q-75 0 -105.5 36t-32.5 106v336h-63v-335q0 -46 10 -82t31.5 -61t56 -38.5t83.5 -13.5q58 0 105.5 27.5t72.5 79.5h2v-93h58zM146 569h67v101h-67v-101zM322 569h68v101h-68v-101zM285 717l132 141h-78
l-105 -141h51z" />
    <glyph glyph-name="Udieresiscaron" unicode="&#x1d9;" horiz-adv-x="685" 
d="M65 714v-457q0 -55 15.5 -104.5t49 -86.5t86 -58.5t126.5 -21.5q75 0 127.5 21.5t86 58.5t49 86.5t15.5 104.5v457h-68v-442q0 -62 -14 -105.5t-41 -71t-66 -40t-89 -12.5q-49 0 -88 12.5t-66 40t-41 71t-14 105.5v442h-68zM220 764h67v101h-67v-101zM396 764h68v101h-68
v-101zM194 1056l113 -141h69l114 141h-58l-88 -102l-86 102h-64z" />
    <glyph glyph-name="udieresiscaron" unicode="&#x1da;" horiz-adv-x="537" 
d="M478 0v516h-63v-271q0 -39 -9 -76.5t-28 -66.5t-48 -46.5t-70 -17.5q-75 0 -105.5 36t-32.5 106v336h-63v-335q0 -46 10 -82t31.5 -61t56 -38.5t83.5 -13.5q58 0 105.5 27.5t72.5 79.5h2v-93h58zM146 569h67v101h-67v-101zM322 569h68v101h-68v-101zM120 858l113 -141h69
l114 141h-58l-88 -102l-86 102h-64z" />
    <glyph glyph-name="Udieresisgrave" unicode="&#x1db;" horiz-adv-x="685" 
d="M65 714v-457q0 -55 15.5 -104.5t49 -86.5t86 -58.5t126.5 -21.5q75 0 127.5 21.5t86 58.5t49 86.5t15.5 104.5v457h-68v-442q0 -62 -14 -105.5t-41 -71t-66 -40t-89 -12.5q-49 0 -88 12.5t-66 40t-41 71t-14 105.5v442h-68zM220 764h67v101h-67v-101zM396 764h68v101h-68
v-101zM188 1056l131 -141h51l-105 141h-77z" />
    <glyph glyph-name="udieresisgrave" unicode="&#x1dc;" horiz-adv-x="537" 
d="M478 0v516h-63v-271q0 -39 -9 -76.5t-28 -66.5t-48 -46.5t-70 -17.5q-75 0 -105.5 36t-32.5 106v336h-63v-335q0 -46 10 -82t31.5 -61t56 -38.5t83.5 -13.5q58 0 105.5 27.5t72.5 79.5h2v-93h58zM146 569h67v101h-67v-101zM322 569h68v101h-68v-101zM126 858l131 -141h51
l-105 141h-77z" />
    <glyph glyph-name="Adieresismacron" unicode="&#x1de;" horiz-adv-x="630" 
d="M173 280l143 366l138 -366h-281zM281 714l-287 -714h72l86 222h325l87 -222h73l-280 714h-76zM193 764h67v101h-67v-101zM369 764h68v101h-68v-101zM151 915h328v45h-328v-45z" />
    <glyph glyph-name="adieresismacron" unicode="&#x1df;" horiz-adv-x="519" 
d="M54 358h63q2 63 40 91.5t98 28.5q28 0 52.5 -4.5t43 -16.5t29 -32.5t10.5 -52.5q0 -21 -5.5 -34t-15.5 -20.5t-25 -10.5t-35 -5q-51 -6 -100.5 -12.5t-89 -22.5t-63.5 -46.5t-24 -84.5q0 -39 13.5 -67.5t37 -47t55 -27t67.5 -8.5q38 0 65.5 7t49 20t39 32.5t34.5 44.5h2
q0 -20 2.5 -36.5t10.5 -28.5t22.5 -18.5t38.5 -6.5q13 0 21.5 1t19.5 3v53q-9 -4 -20 -4q-37 0 -37 38v274q0 52 -17 84.5t-44 50.5t-61 24.5t-68 6.5q-45 0 -82 -10t-64.5 -31t-43.5 -54t-19 -78zM390 282v-82q0 -38 -14.5 -68t-39 -51t-57.5 -32t-69 -11q-22 0 -43 7
t-37 20.5t-25.5 32t-9.5 42.5q0 38 22.5 58.5t57.5 31.5t77.5 16.5t82.5 12.5q13 2 30 7t23 16h2zM149 584h67v101h-67v-101zM325 584h68v101h-68v-101zM107 732h328v45h-328v-45z" />
    <glyph glyph-name="Adotmacron" unicode="&#x1e0;" horiz-adv-x="630" 
d="M173 280l143 366l138 -366h-281zM281 714l-287 -714h72l86 222h325l87 -222h73l-280 714h-76zM281 764h68v101h-68v-101zM151 915h328v45h-328v-45z" />
    <glyph glyph-name="adotmacron" unicode="&#x1e1;" horiz-adv-x="519" 
d="M54 358h63q2 63 40 91.5t98 28.5q28 0 52.5 -4.5t43 -16.5t29 -32.5t10.5 -52.5q0 -21 -5.5 -34t-15.5 -20.5t-25 -10.5t-35 -5q-51 -6 -100.5 -12.5t-89 -22.5t-63.5 -46.5t-24 -84.5q0 -39 13.5 -67.5t37 -47t55 -27t67.5 -8.5q38 0 65.5 7t49 20t39 32.5t34.5 44.5h2
q0 -20 2.5 -36.5t10.5 -28.5t22.5 -18.5t38.5 -6.5q13 0 21.5 1t19.5 3v53q-9 -4 -20 -4q-37 0 -37 38v274q0 52 -17 84.5t-44 50.5t-61 24.5t-68 6.5q-45 0 -82 -10t-64.5 -31t-43.5 -54t-19 -78zM390 282v-82q0 -38 -14.5 -68t-39 -51t-57.5 -32t-69 -11q-22 0 -43 7
t-37 20.5t-25.5 32t-9.5 42.5q0 38 22.5 58.5t57.5 31.5t77.5 16.5t82.5 12.5q13 2 30 7t23 16h2zM237 584h68v101h-68v-101zM107 732h328v45h-328v-45z" />
    <glyph glyph-name="AEmacron" unicode="&#x1e2;" horiz-adv-x="907" 
d="M445 284h-229l189 372h40v-372zM513 58v282h344v58h-344v258h367v58h-513l-373 -714h76l116 226h259v-226h439v58h-371zM422 772h328v45h-328v-45z" />
    <glyph glyph-name="aemacron" unicode="&#x1e3;" horiz-adv-x="870" 
d="M453 241h388q0 56 -11 108.5t-37 93t-68.5 64.5t-106.5 24q-28 0 -56 -6.5t-52.5 -20t-43.5 -33.5t-29 -47h-2q-5 33 -22.5 54t-42 32.5t-53 16t-54.5 4.5q-45 0 -82 -10t-64.5 -31t-43.5 -54t-19 -78h63q2 63 40 91.5t98 28.5q28 0 52.5 -4.5t43 -16.5t29 -32.5
t10.5 -52.5q0 -21 -5.5 -34t-15.5 -20.5t-25 -10.5t-35 -5q-51 -6 -100.5 -12.5t-89 -22.5t-63.5 -46.5t-24 -84.5q0 -39 13.5 -67.5t37 -47t55 -27t67.5 -8.5q34 0 70 8t66.5 24t52 40t27.5 57h2q23 -66 71.5 -97.5t117.5 -31.5q91 0 148 46.5t77 134.5h-63
q-14 -61 -51.5 -95t-101.5 -34q-45 0 -78 16.5t-54 44t-30 64.5t-6 78zM390 282v-82q0 -38 -14.5 -68t-39 -51t-57.5 -32t-69 -11q-22 0 -43 7t-37 20.5t-25.5 32t-9.5 42.5q0 38 22.5 58.5t57.5 31.5t77.5 16.5t82.5 12.5q13 2 30 7t23 16h2zM778 294h-325q-1 36 9.5 69.5
t31.5 59t51.5 40.5t69.5 15q38 0 68 -15.5t51 -41t32.5 -58.5t11.5 -69zM272 584h328v45h-328v-45z" />
    <glyph glyph-name="Gcaron" unicode="&#x1e6;" horiz-adv-x="741" 
d="M682 0v363h-303v-58h243q1 -57 -15 -105t-48 -83t-78.5 -54.5t-105.5 -19.5q-71 0 -122 27t-83.5 71.5t-48 101t-15.5 114.5q0 59 15.5 115t48 100.5t83.5 71.5t122 27q51 0 92 -16.5t70.5 -42.5t47 -57.5t20.5 -62.5h68q-10 59 -37 103t-66 74t-89 45t-106 15
q-84 0 -147.5 -30.5t-105.5 -82t-63 -118.5t-21 -141t21 -141t63 -118t105.5 -81.5t147.5 -30.5q39 0 75.5 8t68.5 25.5t58.5 45t44.5 65.5h2l9 -130h49zM212 920l113 -141h69l114 141h-58l-88 -102l-86 102h-64z" />
    <glyph glyph-name="gcaron" unicode="&#x1e7;" 
d="M496 42v474h-63v-89h-2q-9 21 -25.5 40t-37.5 33.5t-46.5 22.5t-54.5 8q-56 0 -99.5 -20.5t-73 -56t-45 -83t-15.5 -100.5q0 -55 13 -103.5t41.5 -84.5t72.5 -56.5t106 -20.5q57 0 99.5 29t64.5 77h2v-70q0 -94 -39 -144t-127 -50q-26 0 -51 5.5t-45.5 17.5t-35 31.5
t-19.5 48.5h-63q3 -41 22.5 -70.5t49 -48.5t66.5 -28t76 -9q63 0 106.5 17t70.5 49t39.5 78t12.5 103zM267 59q-44 0 -76 17.5t-53 46t-31 65.5t-10 76q0 40 9.5 78.5t30.5 68.5t53 48.5t77 18.5t76.5 -19t51.5 -50t29 -69t9 -76q0 -39 -10.5 -76t-31.5 -65.5t-52 -46
t-72 -17.5zM117 725l113 -141h69l114 141h-58l-88 -102l-86 102h-64z" />
    <glyph glyph-name="Kcaron" unicode="&#x1e8;" horiz-adv-x="648" 
d="M72 714v-714h68v245l137 127l297 -372h88l-334 419l319 295h-92l-415 -384v384h-68zM219 905l113 -141h69l114 141h-58l-88 -102l-86 102h-64z" />
    <glyph glyph-name="kcaron" unicode="&#x1e9;" horiz-adv-x="500" 
d="M60 714v-714h63v196l102 85l204 -281h79l-235 325l220 191h-84l-286 -250v448h-63zM136 905l113 -141h69l114 141h-58l-88 -102l-86 102h-64z" />
    <glyph glyph-name="Oogonek" unicode="&#x1ea;" horiz-adv-x="741" 
d="M102 357q0 59 15.5 115t48 100.5t83.5 71.5t122 27t121.5 -27t83 -71.5t48 -100.5t15.5 -115q0 -58 -15.5 -114.5t-48 -101t-83 -71.5t-121.5 -27t-122 27t-83.5 71.5t-48 101t-15.5 114.5zM34 357q0 -74 21 -141t63 -118t105.5 -81.5t147.5 -30.5t147 30.5t105 81.5
t63 118t21 141t-21 141t-63 118.5t-105 82t-147 30.5t-147.5 -30.5t-105.5 -82t-63 -118.5t-21 -141zM427 -11h-38q-38 -22 -60.5 -42.5t-34.5 -38t-15.5 -30t-3.5 -19.5q0 -36 21 -59t75 -23q26 0 49.5 15t45.5 52l-29 13q-8 -14 -22 -27.5t-33 -13.5q-17 0 -30.5 11.5
t-13.5 35.5q0 13 3.5 26t13.5 28t27.5 33t44.5 39z" />
    <glyph glyph-name="oogonek" unicode="&#x1eb;" 
d="M278 478q45 0 79 -19t56.5 -50t34 -70.5t11.5 -80.5t-11.5 -80.5t-34 -70.5t-56.5 -50t-79 -19t-79 19t-56.5 50t-34 70.5t-11.5 80.5t11.5 80.5t34 70.5t56.5 50t79 19zM278 531q-59 0 -104.5 -22t-76.5 -59t-47 -86.5t-16 -105.5t16 -105.5t47 -86.5t76.5 -58.5
t104.5 -21.5t104.5 21.5t76.5 58.5t47 86.5t16 105.5t-16 105.5t-47 86.5t-76.5 59t-104.5 22zM335 -11h-38q-38 -22 -60.5 -42.5t-34.5 -38t-15.5 -30t-3.5 -19.5q0 -36 21 -59t75 -23q26 0 49.5 15t45.5 52l-29 13q-8 -14 -22 -27.5t-33 -13.5q-17 0 -30.5 11.5
t-13.5 35.5q0 13 3.5 26t13.5 28t27.5 33t44.5 39z" />
    <glyph glyph-name="Oogonekmacron" unicode="&#x1ec;" horiz-adv-x="741" 
d="M102 357q0 59 15.5 115t48 100.5t83.5 71.5t122 27t121.5 -27t83 -71.5t48 -100.5t15.5 -115q0 -58 -15.5 -114.5t-48 -101t-83 -71.5t-121.5 -27t-122 27t-83.5 71.5t-48 101t-15.5 114.5zM34 357q0 -74 21 -141t63 -118t105.5 -81.5t147.5 -30.5t147 30.5t105 81.5
t63 118t21 141t-21 141t-63 118.5t-105 82t-147 30.5t-147.5 -30.5t-105.5 -82t-63 -118.5t-21 -141zM427 -11h-38q-38 -22 -60.5 -42.5t-34.5 -38t-15.5 -30t-3.5 -19.5q0 -36 21 -59t75 -23q26 0 49.5 15t45.5 52l-29 13q-8 -14 -22 -27.5t-33 -13.5q-17 0 -30.5 11.5
t-13.5 35.5q0 13 3.5 26t13.5 28t27.5 33t44.5 39zM206 779h328v45h-328v-45z" />
    <glyph glyph-name="oogonekmacron" unicode="&#x1ed;" 
d="M278 478q45 0 79 -19t56.5 -50t34 -70.5t11.5 -80.5t-11.5 -80.5t-34 -70.5t-56.5 -50t-79 -19t-79 19t-56.5 50t-34 70.5t-11.5 80.5t11.5 80.5t34 70.5t56.5 50t79 19zM278 531q-59 0 -104.5 -22t-76.5 -59t-47 -86.5t-16 -105.5t16 -105.5t47 -86.5t76.5 -58.5
t104.5 -21.5t104.5 21.5t76.5 58.5t47 86.5t16 105.5t-16 105.5t-47 86.5t-76.5 59t-104.5 22zM335 -11h-38q-38 -22 -60.5 -42.5t-34.5 -38t-15.5 -30t-3.5 -19.5q0 -36 21 -59t75 -23q26 0 49.5 15t45.5 52l-29 13q-8 -14 -22 -27.5t-33 -13.5q-17 0 -30.5 11.5
t-13.5 35.5q0 13 3.5 26t13.5 28t27.5 33t44.5 39zM114 584h328v45h-328v-45z" />
    <glyph glyph-name="DZ" unicode="&#x1f1;" horiz-adv-x="1259" 
d="M72 714v-714h247q163 4 245.5 91.5t82.5 265.5t-82.5 265.5t-245.5 91.5h-247zM140 58v598h145q77 0 132.5 -16.5t91.5 -52.5t53 -93t17 -137t-17 -137t-53 -93t-91.5 -52.5t-132.5 -16.5h-145zM722 714v-58h438l-470 -596v-60h556v58h-480l470 596v60h-514z" />
    <glyph glyph-name="Dz" unicode="&#x1f2;" horiz-adv-x="1148" 
d="M72 714v-714h247q163 4 245.5 91.5t82.5 265.5t-82.5 265.5t-245.5 91.5h-247zM140 58v598h145q77 0 132.5 -16.5t91.5 -52.5t53 -93t17 -137t-17 -137t-53 -93t-91.5 -52.5t-132.5 -16.5h-145zM776 53l341 418v45h-394v-53h314l-337 -412v-51h431v53h-355z" />
    <glyph glyph-name="dz" unicode="&#x1f3;" horiz-adv-x="1037" 
d="M514 0v714h-63v-296h-2q-10 28 -28.5 49t-42.5 35.5t-51.5 21.5t-56.5 7q-59 0 -102.5 -22t-72.5 -59.5t-43 -87t-14 -104.5t14 -104.5t43 -87t72.5 -59t102.5 -21.5q28 0 56.5 8t53.5 22.5t44.5 35.5t29.5 46h2v-98h58zM101 258q0 40 9.5 79.5t30 70.5t52.5 50.5
t77 19.5q50 0 84.5 -19.5t56 -50.5t31 -70.5t9.5 -79.5t-9.5 -79.5t-31 -70.5t-56 -50.5t-84.5 -19.5q-45 0 -77 19.5t-52.5 50.5t-30 70.5t-9.5 79.5zM665 53l341 418v45h-394v-53h314l-337 -412v-51h431v53h-355z" />
    <glyph glyph-name="Gacute" unicode="&#x1f4;" horiz-adv-x="741" 
d="M682 0v363h-303v-58h243q1 -57 -15 -105t-48 -83t-78.5 -54.5t-105.5 -19.5q-71 0 -122 27t-83.5 71.5t-48 101t-15.5 114.5q0 59 15.5 115t48 100.5t83.5 71.5t122 27q51 0 92 -16.5t70.5 -42.5t47 -57.5t20.5 -62.5h68q-10 59 -37 103t-66 74t-89 45t-106 15
q-84 0 -147.5 -30.5t-105.5 -82t-63 -118.5t-21 -141t21 -141t63 -118t105.5 -81.5t147.5 -30.5q39 0 75.5 8t68.5 25.5t58.5 45t44.5 65.5h2l9 -130h49zM371 779l132 141h-78l-105 -141h51z" />
    <glyph glyph-name="gacute" unicode="&#x1f5;" 
d="M496 42v474h-63v-89h-2q-9 21 -25.5 40t-37.5 33.5t-46.5 22.5t-54.5 8q-56 0 -99.5 -20.5t-73 -56t-45 -83t-15.5 -100.5q0 -55 13 -103.5t41.5 -84.5t72.5 -56.5t106 -20.5q57 0 99.5 29t64.5 77h2v-70q0 -94 -39 -144t-127 -50q-26 0 -51 5.5t-45.5 17.5t-35 31.5
t-19.5 48.5h-63q3 -41 22.5 -70.5t49 -48.5t66.5 -28t76 -9q63 0 106.5 17t70.5 49t39.5 78t12.5 103zM267 59q-44 0 -76 17.5t-53 46t-31 65.5t-10 76q0 40 9.5 78.5t30.5 68.5t53 48.5t77 18.5t76.5 -19t51.5 -50t29 -69t9 -76q0 -39 -10.5 -76t-31.5 -65.5t-52 -46
t-72 -17.5zM267 581l132 141h-78l-105 -141h51z" />
    <glyph glyph-name="Ngrave" unicode="&#x1f8;" horiz-adv-x="704" 
d="M71 714v-714h68v604h2l416 -604h76v714h-68v-604h-2l-416 604h-76zM219 902l131 -141h51l-105 141h-77z" />
    <glyph glyph-name="ngrave" unicode="&#x1f9;" horiz-adv-x="537" 
d="M59 516v-516h63v301q1 38 12.5 70.5t32 56t50 37t67.5 13.5t63.5 -12t40.5 -33t21 -49.5t6 -61.5v-322h63v332q0 46 -9 83t-31 62.5t-58.5 39.5t-90.5 14q-55 0 -101 -28.5t-64 -75.5h-2v89h-63zM140 725l131 -141h51l-105 141h-77z" />
    <glyph glyph-name="Aringacute" unicode="&#x1fa;" horiz-adv-x="630" 
d="M173 280l143 366l138 -366h-281zM281 714l-287 -714h72l86 222h325l87 -222h73l-280 714h-76zM247 871q0 29 19.5 48.5t48.5 19.5t48.5 -19.5t19.5 -48.5t-19.5 -48.5t-48.5 -19.5t-48.5 19.5t-19.5 48.5zM209 871q0 -22 8 -41.5t22.5 -34t34 -23t41.5 -8.5t41.5 8.5
t34 23t23 34t8.5 41.5t-8.5 41.5t-23 34t-34 23t-41.5 8.5t-41.5 -8.5t-34 -23t-22.5 -34t-8 -41.5zM317 1022l132 141h-78l-105 -141h51z" />
    <glyph glyph-name="aringacute" unicode="&#x1fb;" horiz-adv-x="519" 
d="M54 358h63q2 63 40 91.5t98 28.5q28 0 52.5 -4.5t43 -16.5t29 -32.5t10.5 -52.5q0 -21 -5.5 -34t-15.5 -20.5t-25 -10.5t-35 -5q-51 -6 -100.5 -12.5t-89 -22.5t-63.5 -46.5t-24 -84.5q0 -39 13.5 -67.5t37 -47t55 -27t67.5 -8.5q38 0 65.5 7t49 20t39 32.5t34.5 44.5h2
q0 -20 2.5 -36.5t10.5 -28.5t22.5 -18.5t38.5 -6.5q13 0 21.5 1t19.5 3v53q-9 -4 -20 -4q-37 0 -37 38v274q0 52 -17 84.5t-44 50.5t-61 24.5t-68 6.5q-45 0 -82 -10t-64.5 -31t-43.5 -54t-19 -78zM390 282v-82q0 -38 -14.5 -68t-39 -51t-57.5 -32t-69 -11q-22 0 -43 7
t-37 20.5t-25.5 32t-9.5 42.5q0 38 22.5 58.5t57.5 31.5t77.5 16.5t82.5 12.5q13 2 30 7t23 16h2zM203 688q0 29 19.5 48.5t48.5 19.5t48.5 -19.5t19.5 -48.5t-19.5 -48.5t-48.5 -19.5t-48.5 19.5t-19.5 48.5zM165 688q0 -22 8 -41.5t22.5 -34t34 -23t41.5 -8.5t41.5 8.5
t34 23t23 34t8.5 41.5t-8.5 41.5t-23 34t-34 23t-41.5 8.5t-41.5 -8.5t-34 -23t-22.5 -34t-8 -41.5zM279 845l132 141h-78l-105 -141h51z" />
    <glyph glyph-name="AEacute" unicode="&#x1fc;" horiz-adv-x="907" 
d="M445 284h-229l189 372h40v-372zM513 58v282h344v58h-344v258h367v58h-513l-373 -714h76l116 226h259v-226h439v58h-371zM587 758l132 141h-78l-105 -141h51z" />
    <glyph glyph-name="aeacute" unicode="&#x1fd;" horiz-adv-x="870" 
d="M453 241h388q0 56 -11 108.5t-37 93t-68.5 64.5t-106.5 24q-28 0 -56 -6.5t-52.5 -20t-43.5 -33.5t-29 -47h-2q-5 33 -22.5 54t-42 32.5t-53 16t-54.5 4.5q-45 0 -82 -10t-64.5 -31t-43.5 -54t-19 -78h63q2 63 40 91.5t98 28.5q28 0 52.5 -4.5t43 -16.5t29 -32.5
t10.5 -52.5q0 -21 -5.5 -34t-15.5 -20.5t-25 -10.5t-35 -5q-51 -6 -100.5 -12.5t-89 -22.5t-63.5 -46.5t-24 -84.5q0 -39 13.5 -67.5t37 -47t55 -27t67.5 -8.5q34 0 70 8t66.5 24t52 40t27.5 57h2q23 -66 71.5 -97.5t117.5 -31.5q91 0 148 46.5t77 134.5h-63
q-14 -61 -51.5 -95t-101.5 -34q-45 0 -78 16.5t-54 44t-30 64.5t-6 78zM390 282v-82q0 -38 -14.5 -68t-39 -51t-57.5 -32t-69 -11q-22 0 -43 7t-37 20.5t-25.5 32t-9.5 42.5q0 38 22.5 58.5t57.5 31.5t77.5 16.5t82.5 12.5q13 2 30 7t23 16h2zM778 294h-325q-1 36 9.5 69.5
t31.5 59t51.5 40.5t69.5 15q38 0 68 -15.5t51 -41t32.5 -58.5t11.5 -69zM462 584l132 141h-78l-105 -141h51z" />
    <glyph glyph-name="Oslashacute" unicode="&#x1fe;" horiz-adv-x="741" 
d="M698 696l-26 23l-71 -78q-42 42 -98.5 65t-131.5 23q-84 0 -147.5 -30.5t-105.5 -82t-63 -118.5t-21 -141q0 -72 20 -138t62 -118l-79 -88l27 -24l76 85q42 -42 99 -65t132 -23q84 0 147 30.5t105 81.5t63 118t21 141q0 73 -20 140t-62 118zM558 593l-398 -443
q-30 43 -44 96.5t-14 110.5q0 59 15.5 115t48 100.5t83.5 71.5t122 27q63 0 109 -21.5t78 -56.5zM183 122l397 443q31 -43 45 -97t14 -111q0 -58 -15.5 -114.5t-48 -101t-83 -71.5t-121.5 -27q-63 0 -109 21t-79 58zM387 779l132 141h-78l-105 -141h51z" />
    <glyph glyph-name="oslashacute" unicode="&#x1ff;" 
d="M522 499l-22 20l-52 -56q-30 32 -73 50t-97 18q-59 0 -104.5 -22t-76.5 -59t-47 -86.5t-16 -105.5q0 -52 14 -99t42 -83l-61 -67l22 -19l59 63q30 -32 72 -49.5t96 -17.5q59 0 104.5 21.5t76.5 58.5t47 86.5t16 105.5q0 51 -13.5 97.5t-40.5 84.5zM151 97l273 295
q18 -29 26.5 -63.5t8.5 -70.5q0 -41 -11.5 -80.5t-34 -70.5t-56.5 -50t-79 -19q-42 0 -74 16.5t-53 42.5zM406 418l-273 -295q-19 30 -27.5 64.5t-8.5 70.5q0 41 11.5 80.5t34 70.5t56.5 50t79 19q42 0 74 -16.5t54 -43.5zM272 584l132 141h-78l-105 -141h51z" />
    <glyph glyph-name="Hcaron" unicode="&#x21e;" horiz-adv-x="704" 
d="M72 714v-714h68v346h424v-346h68v714h-68v-310h-424v310h-68zM204 905l113 -141h69l114 141h-58l-88 -102l-86 102h-64z" />
    <glyph glyph-name="hcaron" unicode="&#x21f;" horiz-adv-x="537" 
d="M59 714v-714h63v301q1 38 12.5 70.5t32 56t50 37t67.5 13.5t63.5 -12t40.5 -33t21 -49.5t6 -61.5v-322h63v332q0 46 -9 83t-31 62.5t-58.5 39.5t-90.5 14q-55 0 -101 -28.5t-64 -75.5h-2v287h-63zM120 905l113 -141h69l114 141h-58l-88 -102l-86 102h-64z" />
    <glyph glyph-name="Adotaccent" unicode="&#x226;" horiz-adv-x="630" 
d="M173 280l143 366l138 -366h-281zM281 714l-287 -714h72l86 222h325l87 -222h73l-280 714h-76zM281 764h68v101h-68v-101z" />
    <glyph glyph-name="adotaccent" unicode="&#x227;" horiz-adv-x="519" 
d="M54 358h63q2 63 40 91.5t98 28.5q28 0 52.5 -4.5t43 -16.5t29 -32.5t10.5 -52.5q0 -21 -5.5 -34t-15.5 -20.5t-25 -10.5t-35 -5q-51 -6 -100.5 -12.5t-89 -22.5t-63.5 -46.5t-24 -84.5q0 -39 13.5 -67.5t37 -47t55 -27t67.5 -8.5q38 0 65.5 7t49 20t39 32.5t34.5 44.5h2
q0 -20 2.5 -36.5t10.5 -28.5t22.5 -18.5t38.5 -6.5q13 0 21.5 1t19.5 3v53q-9 -4 -20 -4q-37 0 -37 38v274q0 52 -17 84.5t-44 50.5t-61 24.5t-68 6.5q-45 0 -82 -10t-64.5 -31t-43.5 -54t-19 -78zM390 282v-82q0 -38 -14.5 -68t-39 -51t-57.5 -32t-69 -11q-22 0 -43 7
t-37 20.5t-25.5 32t-9.5 42.5q0 38 22.5 58.5t57.5 31.5t77.5 16.5t82.5 12.5q13 2 30 7t23 16h2zM237 584h68v101h-68v-101z" />
    <glyph glyph-name="Ecedilla" unicode="&#x228;" horiz-adv-x="593" 
d="M72 714v-714h498v58h-430v282h398v58h-398v258h425v58h-493zM351 0h-35l-61 -78l16 -15q18 8 51 8q17 0 30 -10t13 -28q0 -23 -16 -33t-37 -10q-22 0 -44 4.5t-35 9.5l-13 -32q21 -11 45 -16t48 -5q19 0 38.5 5t35.5 15.5t26 26.5t10 39t-11.5 37t-29 20.5t-37.5 7
t-38 -2.5z" />
    <glyph glyph-name="ecedilla" unicode="&#x229;" horiz-adv-x="519" 
d="M431 294h-334q4 35 16.5 68.5t33.5 59t51 41t69 15.5q38 0 68 -15.5t51 -41t32.5 -58.5t12.5 -69zM97 241h397q2 54 -10 106.5t-39.5 93t-71.5 65.5t-106 25q-61 0 -105.5 -23.5t-72.5 -62t-41.5 -87.5t-13.5 -100q0 -55 13.5 -104.5t41.5 -87t72.5 -59t105.5 -21.5
q98 0 151.5 48t73.5 136h-63q-15 -60 -54 -96t-108 -36q-45 0 -77 19t-53 48t-30.5 65.5t-9.5 70.5zM295 -11h-35l-61 -78l16 -15q18 8 51 8q17 0 30 -10t13 -28q0 -23 -16 -33t-37 -10q-22 0 -44 4.5t-35 9.5l-13 -32q21 -11 45 -16t48 -5q19 0 38.5 5t35.5 15.5t26 26.5
t10 39t-11.5 37t-29 20.5t-37.5 7t-38 -2.5z" />
    <glyph glyph-name="Odieresismacron" unicode="&#x22a;" horiz-adv-x="741" 
d="M102 357q0 59 15.5 115t48 100.5t83.5 71.5t122 27t121.5 -27t83 -71.5t48 -100.5t15.5 -115q0 -58 -15.5 -114.5t-48 -101t-83 -71.5t-121.5 -27t-122 27t-83.5 71.5t-48 101t-15.5 114.5zM34 357q0 -74 21 -141t63 -118t105.5 -81.5t147.5 -30.5t147 30.5t105 81.5
t63 118t21 141t-21 141t-63 118.5t-105 82t-147 30.5t-147.5 -30.5t-105.5 -82t-63 -118.5t-21 -141zM248 779h67v101h-67v-101zM424 779h68v101h-68v-101zM206 930h328v45h-328v-45z" />
    <glyph glyph-name="odieresismacron" unicode="&#x22b;" 
d="M278 478q45 0 79 -19t56.5 -50t34 -70.5t11.5 -80.5t-11.5 -80.5t-34 -70.5t-56.5 -50t-79 -19t-79 19t-56.5 50t-34 70.5t-11.5 80.5t11.5 80.5t34 70.5t56.5 50t79 19zM278 531q-59 0 -104.5 -22t-76.5 -59t-47 -86.5t-16 -105.5t16 -105.5t47 -86.5t76.5 -58.5
t104.5 -21.5t104.5 21.5t76.5 58.5t47 86.5t16 105.5t-16 105.5t-47 86.5t-76.5 59t-104.5 22zM156 584h67v101h-67v-101zM332 584h68v101h-68v-101zM114 732h328v45h-328v-45z" />
    <glyph glyph-name="Otildemacron" unicode="&#x22c;" horiz-adv-x="741" 
d="M102 357q0 59 15.5 115t48 100.5t83.5 71.5t122 27t121.5 -27t83 -71.5t48 -100.5t15.5 -115q0 -58 -15.5 -114.5t-48 -101t-83 -71.5t-121.5 -27t-122 27t-83.5 71.5t-48 101t-15.5 114.5zM34 357q0 -74 21 -141t63 -118t105.5 -81.5t147.5 -30.5t147 30.5t105 81.5
t63 118t21 141t-21 141t-63 118.5t-105 82t-147 30.5t-147.5 -30.5t-105.5 -82t-63 -118.5t-21 -141zM527 879h-38q-6 -20 -17.5 -34t-34.5 -14q-14 0 -28.5 7t-31 15t-35.5 15t-40 7q-19 0 -34.5 -8.5t-27 -22t-18 -30.5t-8.5 -35h39q0 25 14.5 38t37.5 13q13 0 28 -7
t32 -16t36 -16t39 -7t35 8.5t25.5 22t17 30.5t9.5 34zM206 929h328v45h-328v-45z" />
    <glyph glyph-name="otildemacron" unicode="&#x22d;" 
d="M278 478q45 0 79 -19t56.5 -50t34 -70.5t11.5 -80.5t-11.5 -80.5t-34 -70.5t-56.5 -50t-79 -19t-79 19t-56.5 50t-34 70.5t-11.5 80.5t11.5 80.5t34 70.5t56.5 50t79 19zM278 531q-59 0 -104.5 -22t-76.5 -59t-47 -86.5t-16 -105.5t16 -105.5t47 -86.5t76.5 -58.5
t104.5 -21.5t104.5 21.5t76.5 58.5t47 86.5t16 105.5t-16 105.5t-47 86.5t-76.5 59t-104.5 22zM435 684h-38q-6 -20 -17.5 -34t-34.5 -14q-14 0 -28.5 7t-31 15t-35.5 15t-40 7q-19 0 -34.5 -8.5t-27 -22t-18 -30.5t-8.5 -35h39q0 25 14.5 38t37.5 13q13 0 28 -7t32 -16
t36 -16t39 -7t35 8.5t25.5 22t17 30.5t9.5 34zM114 731h328v45h-328v-45z" />
    <glyph glyph-name="Odotaccent" unicode="&#x22e;" horiz-adv-x="741" 
d="M102 357q0 59 15.5 115t48 100.5t83.5 71.5t122 27t121.5 -27t83 -71.5t48 -100.5t15.5 -115q0 -58 -15.5 -114.5t-48 -101t-83 -71.5t-121.5 -27t-122 27t-83.5 71.5t-48 101t-15.5 114.5zM34 357q0 -74 21 -141t63 -118t105.5 -81.5t147.5 -30.5t147 30.5t105 81.5
t63 118t21 141t-21 141t-63 118.5t-105 82t-147 30.5t-147.5 -30.5t-105.5 -82t-63 -118.5t-21 -141zM336 779h68v101h-68v-101z" />
    <glyph glyph-name="odotaccent" unicode="&#x22f;" 
d="M278 478q45 0 79 -19t56.5 -50t34 -70.5t11.5 -80.5t-11.5 -80.5t-34 -70.5t-56.5 -50t-79 -19t-79 19t-56.5 50t-34 70.5t-11.5 80.5t11.5 80.5t34 70.5t56.5 50t79 19zM278 531q-59 0 -104.5 -22t-76.5 -59t-47 -86.5t-16 -105.5t16 -105.5t47 -86.5t76.5 -58.5
t104.5 -21.5t104.5 21.5t76.5 58.5t47 86.5t16 105.5t-16 105.5t-47 86.5t-76.5 59t-104.5 22zM244 584h68v101h-68v-101z" />
    <glyph glyph-name="Odotaccentmacron" unicode="&#x230;" horiz-adv-x="741" 
d="M102 357q0 59 15.5 115t48 100.5t83.5 71.5t122 27t121.5 -27t83 -71.5t48 -100.5t15.5 -115q0 -58 -15.5 -114.5t-48 -101t-83 -71.5t-121.5 -27t-122 27t-83.5 71.5t-48 101t-15.5 114.5zM34 357q0 -74 21 -141t63 -118t105.5 -81.5t147.5 -30.5t147 30.5t105 81.5
t63 118t21 141t-21 141t-63 118.5t-105 82t-147 30.5t-147.5 -30.5t-105.5 -82t-63 -118.5t-21 -141zM336 779h68v101h-68v-101zM206 930h328v45h-328v-45z" />
    <glyph glyph-name="odotaccentmacron" unicode="&#x231;" 
d="M278 478q45 0 79 -19t56.5 -50t34 -70.5t11.5 -80.5t-11.5 -80.5t-34 -70.5t-56.5 -50t-79 -19t-79 19t-56.5 50t-34 70.5t-11.5 80.5t11.5 80.5t34 70.5t56.5 50t79 19zM278 531q-59 0 -104.5 -22t-76.5 -59t-47 -86.5t-16 -105.5t16 -105.5t47 -86.5t76.5 -58.5
t104.5 -21.5t104.5 21.5t76.5 58.5t47 86.5t16 105.5t-16 105.5t-47 86.5t-76.5 59t-104.5 22zM244 584h68v101h-68v-101zM114 732h328v45h-328v-45z" />
    <glyph glyph-name="Ymacron" unicode="&#x232;" horiz-adv-x="611" 
d="M271 294v-294h68v294l282 420h-81l-234 -362l-235 362h-80zM142 764h328v45h-328v-45z" />
    <glyph glyph-name="ymacron" unicode="&#x233;" horiz-adv-x="463" 
d="M2 516l206 -514l-22 -58q-8 -18 -15 -33t-17 -25.5t-23.5 -16.5t-34.5 -6q-11 0 -21.5 1.5t-21.5 3.5v-53q8 -3 18.5 -3.5t29.5 -1.5q30 0 49.5 5.5t34 18t26.5 34t26 54.5l224 594h-63l-159 -440l-170 440h-67zM67 569h328v45h-328v-45z" />
    <glyph glyph-name="commaturnedmod" unicode="&#x2bb;" horiz-adv-x="278" 
d="M95 471h84v106h-42q-1 12 1.5 26.5t8.5 28t15 24t22 15.5v43q-22 -6 -39 -20t-28 -32.5t-16.5 -40t-5.5 -43.5v-107z" />
    <glyph glyph-name="afii57929" unicode="&#x2bc;" horiz-adv-x="278" 
d="M183 714h-84v-106h42q1 -12 -1.5 -26.5t-8.5 -28.5t-15 -24.5t-22 -14.5v-43q23 6 39.5 20t27.5 32.5t16.5 40t5.5 43.5v107z" />
    <glyph glyph-name="uni02EE" unicode="&#x2ee;" horiz-adv-x="370" 
d="M152 714h-84v-106h42q1 -12 -1.5 -26.5t-8.5 -28.5t-15 -24.5t-22 -14.5v-43q23 6 39.5 20t27.5 32.5t16.5 40t5.5 43.5v107zM306 714h-84v-106h42q1 -12 -1.5 -26.5t-8.5 -28.5t-15 -24.5t-22 -14.5v-43q23 6 39.5 20t27.5 32.5t16.5 40t5.5 43.5v107z" />
    <glyph glyph-name="Aringbelow" unicode="&#x1e00;" horiz-adv-x="630" 
d="M173 280l143 366l138 -366h-281zM281 714l-287 -714h72l86 222h325l87 -222h73l-280 714h-76zM247 -154q0 29 19.5 48.5t48.5 19.5t48.5 -19.5t19.5 -48.5t-19.5 -48.5t-48.5 -19.5t-48.5 19.5t-19.5 48.5zM209 -154q0 -22 8 -41.5t22.5 -34t34 -23t41.5 -8.5t41.5 8.5
t34 23t23 34t8.5 41.5t-8.5 41.5t-23 34t-34 23t-41.5 8.5t-41.5 -8.5t-34 -23t-22.5 -34t-8 -41.5z" />
    <glyph glyph-name="aringbelow" unicode="&#x1e01;" horiz-adv-x="519" 
d="M54 358h63q2 63 40 91.5t98 28.5q28 0 52.5 -4.5t43 -16.5t29 -32.5t10.5 -52.5q0 -21 -5.5 -34t-15.5 -20.5t-25 -10.5t-35 -5q-51 -6 -100.5 -12.5t-89 -22.5t-63.5 -46.5t-24 -84.5q0 -39 13.5 -67.5t37 -47t55 -27t67.5 -8.5q38 0 65.5 7t49 20t39 32.5t34.5 44.5h2
q0 -20 2.5 -36.5t10.5 -28.5t22.5 -18.5t38.5 -6.5q13 0 21.5 1t19.5 3v53q-9 -4 -20 -4q-37 0 -37 38v274q0 52 -17 84.5t-44 50.5t-61 24.5t-68 6.5q-45 0 -82 -10t-64.5 -31t-43.5 -54t-19 -78zM390 282v-82q0 -38 -14.5 -68t-39 -51t-57.5 -32t-69 -11q-22 0 -43 7
t-37 20.5t-25.5 32t-9.5 42.5q0 38 22.5 58.5t57.5 31.5t77.5 16.5t82.5 12.5q13 2 30 7t23 16h2zM203 -168q0 29 19.5 48.5t48.5 19.5t48.5 -19.5t19.5 -48.5t-19.5 -48.5t-48.5 -19.5t-48.5 19.5t-19.5 48.5zM165 -168q0 -22 8 -41.5t22.5 -34t34 -23t41.5 -8.5t41.5 8.5
t34 23t23 34t8.5 41.5t-8.5 41.5t-23 34t-34 23t-41.5 8.5t-41.5 -8.5t-34 -23t-22.5 -34t-8 -41.5z" />
    <glyph glyph-name="Bdotaccent" unicode="&#x1e02;" horiz-adv-x="667" 
d="M140 401v255h234q161 0 161 -134q0 -25 -10 -47t-30 -38.5t-50 -26t-71 -9.5h-234zM72 714v-714h302q58 0 99.5 10.5t70 27t45.5 38.5t26 44.5t12 44t3 38.5q0 70 -41 117.5t-110 56.5v2q28 6 50.5 21t39 36.5t25.5 48t9 54.5q0 50 -19 83.5t-50.5 54t-73 29t-86.5 8.5
h-302zM140 58v285h234q91 0 139.5 -34.5t48.5 -103.5q0 -43 -15 -71.5t-41 -45.5t-60 -23.5t-72 -6.5h-234zM317 764h68v101h-68v-101z" />
    <glyph glyph-name="bdotaccent" unicode="&#x1e03;" horiz-adv-x="574" 
d="M60 714v-714h58v98h2q22 -54 71.5 -83t112.5 -29q59 0 102.5 21.5t72.5 59t43 87t14 104.5t-14 104.5t-43 87t-72.5 59.5t-102.5 22q-28 0 -56 -7t-52 -21.5t-42.5 -35.5t-28.5 -49h-2v296h-63zM473 258q0 -40 -9.5 -79.5t-30 -70.5t-52.5 -50.5t-77 -19.5
q-50 0 -84.5 19.5t-56 50.5t-31 70.5t-9.5 79.5t9.5 79.5t31 70.5t56 50.5t84.5 19.5q45 0 77 -19.5t52.5 -50.5t30 -70.5t9.5 -79.5zM264 764h68v101h-68v-101z" />
    <glyph glyph-name="Bdotbelow" unicode="&#x1e04;" horiz-adv-x="667" 
d="M140 401v255h234q161 0 161 -134q0 -25 -10 -47t-30 -38.5t-50 -26t-71 -9.5h-234zM72 714v-714h302q58 0 99.5 10.5t70 27t45.5 38.5t26 44.5t12 44t3 38.5q0 70 -41 117.5t-110 56.5v2q28 6 50.5 21t39 36.5t25.5 48t9 54.5q0 50 -19 83.5t-50.5 54t-73 29t-86.5 8.5
h-302zM140 58v285h234q91 0 139.5 -34.5t48.5 -103.5q0 -43 -15 -71.5t-41 -45.5t-60 -23.5t-72 -6.5h-234zM317 -148h68v101h-68v-101z" />
    <glyph glyph-name="bdotbelow" unicode="&#x1e05;" horiz-adv-x="574" 
d="M60 714v-714h58v98h2q22 -54 71.5 -83t112.5 -29q59 0 102.5 21.5t72.5 59t43 87t14 104.5t-14 104.5t-43 87t-72.5 59.5t-102.5 22q-28 0 -56 -7t-52 -21.5t-42.5 -35.5t-28.5 -49h-2v296h-63zM473 258q0 -40 -9.5 -79.5t-30 -70.5t-52.5 -50.5t-77 -19.5
q-50 0 -84.5 19.5t-56 50.5t-31 70.5t-9.5 79.5t9.5 79.5t31 70.5t56 50.5t84.5 19.5q45 0 77 -19.5t52.5 -50.5t30 -70.5t9.5 -79.5zM264 -162h68v101h-68v-101z" />
    <glyph glyph-name="Blinebelow" unicode="&#x1e06;" horiz-adv-x="667" 
d="M140 401v255h234q161 0 161 -134q0 -25 -10 -47t-30 -38.5t-50 -26t-71 -9.5h-234zM72 714v-714h302q58 0 99.5 10.5t70 27t45.5 38.5t26 44.5t12 44t3 38.5q0 70 -41 117.5t-110 56.5v2q28 6 50.5 21t39 36.5t25.5 48t9 54.5q0 50 -19 83.5t-50.5 54t-73 29t-86.5 8.5
h-302zM140 58v285h234q91 0 139.5 -34.5t48.5 -103.5q0 -43 -15 -71.5t-41 -45.5t-60 -23.5t-72 -6.5h-234zM187 -92h328v45h-328v-45z" />
    <glyph glyph-name="blinebelow" unicode="&#x1e07;" horiz-adv-x="574" 
d="M60 714v-714h58v98h2q22 -54 71.5 -83t112.5 -29q59 0 102.5 21.5t72.5 59t43 87t14 104.5t-14 104.5t-43 87t-72.5 59.5t-102.5 22q-28 0 -56 -7t-52 -21.5t-42.5 -35.5t-28.5 -49h-2v296h-63zM473 258q0 -40 -9.5 -79.5t-30 -70.5t-52.5 -50.5t-77 -19.5
q-50 0 -84.5 19.5t-56 50.5t-31 70.5t-9.5 79.5t9.5 79.5t31 70.5t56 50.5t84.5 19.5q45 0 77 -19.5t52.5 -50.5t30 -70.5t9.5 -79.5zM134 -106h328v45h-328v-45z" />
    <glyph glyph-name="Ccedillaacute" unicode="&#x1e08;" horiz-adv-x="704" 
d="M672 272h-68q-5 -48 -23 -89.5t-47 -72.5t-69 -49t-90 -18q-71 0 -122 27t-83.5 71.5t-48 101t-15.5 114.5q0 59 15.5 115t48 100.5t83.5 71.5t122 27q39 0 74.5 -11.5t65 -33.5t50 -54.5t29.5 -73.5h68q-7 56 -33.5 99t-66 72.5t-88 44.5t-99.5 15q-84 0 -147.5 -30.5
t-105.5 -82t-63 -118.5t-21 -141q0 -69 19 -133.5t56.5 -114.5t94 -82.5t132.5 -38.5l-51 -66l16 -15q18 8 51 8q17 0 30 -10t13 -28q0 -23 -16 -33t-37 -10q-22 0 -44 4.5t-35 9.5l-14 -32q22 -11 46 -16t48 -5q19 0 38.5 5t35.5 15.5t26 26.5t10 39t-11.5 37t-29 20.5
t-37.5 7t-38 -2.5l33 43h1q63 0 114.5 20t89.5 57t62 90t31 119zM369 779l132 141h-78l-105 -141h51z" />
    <glyph glyph-name="ccedillaacute" unicode="&#x1e09;" horiz-adv-x="519" 
d="M491 185h-63q-3 -32 -16 -59t-33 -46.5t-46 -30.5t-55 -11q-45 0 -79 19t-56.5 50t-34 70.5t-11.5 80.5t11.5 80.5t34 70.5t56.5 50t79 19q63 0 98 -33t48 -91h63q-11 89 -68.5 133t-140.5 44q-59 0 -104.5 -22t-76.5 -59t-47 -86.5t-16 -105.5q0 -52 14 -98.5t41 -82.5
t67 -59.5t92 -29.5l-51 -66l16 -15q18 8 51 8q17 0 30 -10t13 -28q0 -23 -16 -33t-37 -10q-22 0 -44 4.5t-35 9.5l-14 -32q22 -11 46 -16t48 -5q19 0 38.5 5t35.5 15.5t26 26.5t10 39t-11.5 37t-29 20.5t-37.5 7t-38 -2.5l33 43q85 2 140.5 53.5t68.5 145.5zM293 584
l132 141h-78l-105 -141h51z" />
    <glyph glyph-name="Ddotaccent" unicode="&#x1e0a;" horiz-adv-x="685" 
d="M72 714v-714h247q163 4 245.5 91.5t82.5 265.5t-82.5 265.5t-245.5 91.5h-247zM140 58v598h145q77 0 132.5 -16.5t91.5 -52.5t53 -93t17 -137t-17 -137t-53 -93t-91.5 -52.5t-132.5 -16.5h-145zM325 764h68v101h-68v-101z" />
    <glyph glyph-name="ddotaccent" unicode="&#x1e0b;" horiz-adv-x="574" 
d="M514 0v714h-63v-296h-2q-10 28 -28.5 49t-42.5 35.5t-51.5 21.5t-56.5 7q-59 0 -102.5 -22t-72.5 -59.5t-43 -87t-14 -104.5t14 -104.5t43 -87t72.5 -59t102.5 -21.5q28 0 56.5 8t53.5 22.5t44.5 35.5t29.5 46h2v-98h58zM101 258q0 40 9.5 79.5t30 70.5t52.5 50.5
t77 19.5q50 0 84.5 -19.5t56 -50.5t31 -70.5t9.5 -79.5t-9.5 -79.5t-31 -70.5t-56 -50.5t-84.5 -19.5q-45 0 -77 19.5t-52.5 50.5t-30 70.5t-9.5 79.5zM242 764h68v101h-68v-101z" />
    <glyph glyph-name="Ddotbelow" unicode="&#x1e0c;" horiz-adv-x="685" 
d="M72 714v-714h247q163 4 245.5 91.5t82.5 265.5t-82.5 265.5t-245.5 91.5h-247zM140 58v598h145q77 0 132.5 -16.5t91.5 -52.5t53 -93t17 -137t-17 -137t-53 -93t-91.5 -52.5t-132.5 -16.5h-145zM325 -148h68v101h-68v-101z" />
    <glyph glyph-name="ddotbelow" unicode="&#x1e0d;" horiz-adv-x="574" 
d="M514 0v714h-63v-296h-2q-10 28 -28.5 49t-42.5 35.5t-51.5 21.5t-56.5 7q-59 0 -102.5 -22t-72.5 -59.5t-43 -87t-14 -104.5t14 -104.5t43 -87t72.5 -59t102.5 -21.5q28 0 56.5 8t53.5 22.5t44.5 35.5t29.5 46h2v-98h58zM101 258q0 40 9.5 79.5t30 70.5t52.5 50.5
t77 19.5q50 0 84.5 -19.5t56 -50.5t31 -70.5t9.5 -79.5t-9.5 -79.5t-31 -70.5t-56 -50.5t-84.5 -19.5q-45 0 -77 19.5t-52.5 50.5t-30 70.5t-9.5 79.5zM242 -162h68v101h-68v-101z" />
    <glyph glyph-name="Dlinebelow" unicode="&#x1e0e;" horiz-adv-x="685" 
d="M72 714v-714h247q163 4 245.5 91.5t82.5 265.5t-82.5 265.5t-245.5 91.5h-247zM140 58v598h145q77 0 132.5 -16.5t91.5 -52.5t53 -93t17 -137t-17 -137t-53 -93t-91.5 -52.5t-132.5 -16.5h-145zM195 -92h328v45h-328v-45z" />
    <glyph glyph-name="dlinebelow" unicode="&#x1e0f;" horiz-adv-x="574" 
d="M514 0v714h-63v-296h-2q-10 28 -28.5 49t-42.5 35.5t-51.5 21.5t-56.5 7q-59 0 -102.5 -22t-72.5 -59.5t-43 -87t-14 -104.5t14 -104.5t43 -87t72.5 -59t102.5 -21.5q28 0 56.5 8t53.5 22.5t44.5 35.5t29.5 46h2v-98h58zM101 258q0 40 9.5 79.5t30 70.5t52.5 50.5
t77 19.5q50 0 84.5 -19.5t56 -50.5t31 -70.5t9.5 -79.5t-9.5 -79.5t-31 -70.5t-56 -50.5t-84.5 -19.5q-45 0 -77 19.5t-52.5 50.5t-30 70.5t-9.5 79.5zM112 -106h328v45h-328v-45z" />
    <glyph glyph-name="Dcircumflexbelow" unicode="&#x1e12;" horiz-adv-x="685" 
d="M72 714v-714h247q163 4 245.5 91.5t82.5 265.5t-82.5 265.5t-245.5 91.5h-247zM140 58v598h145q77 0 132.5 -16.5t91.5 -52.5t53 -93t17 -137t-17 -137t-53 -93t-91.5 -52.5t-132.5 -16.5h-145zM507 -188l-114 141h-69l-113 -141h57l88 102l86 -102h65z" />
    <glyph glyph-name="dcircumflexbelow" unicode="&#x1e13;" horiz-adv-x="574" 
d="M514 0v714h-63v-296h-2q-10 28 -28.5 49t-42.5 35.5t-51.5 21.5t-56.5 7q-59 0 -102.5 -22t-72.5 -59.5t-43 -87t-14 -104.5t14 -104.5t43 -87t72.5 -59t102.5 -21.5q28 0 56.5 8t53.5 22.5t44.5 35.5t29.5 46h2v-98h58zM101 258q0 40 9.5 79.5t30 70.5t52.5 50.5
t77 19.5q50 0 84.5 -19.5t56 -50.5t31 -70.5t9.5 -79.5t-9.5 -79.5t-31 -70.5t-56 -50.5t-84.5 -19.5q-45 0 -77 19.5t-52.5 50.5t-30 70.5t-9.5 79.5zM424 -202l-114 141h-69l-113 -141h57l88 102l86 -102h65z" />
    <glyph glyph-name="Emacrongrave" unicode="&#x1e14;" horiz-adv-x="593" 
d="M72 714v-714h498v58h-430v282h398v58h-398v258h425v58h-493zM157 764h328v45h-328v-45zM165 1000l131 -141h51l-105 141h-77z" />
    <glyph glyph-name="emacrongrave" unicode="&#x1e15;" horiz-adv-x="519" 
d="M431 294h-334q4 35 16.5 68.5t33.5 59t51 41t69 15.5q38 0 68 -15.5t51 -41t32.5 -58.5t12.5 -69zM97 241h397q2 54 -10 106.5t-39.5 93t-71.5 65.5t-106 25q-61 0 -105.5 -23.5t-72.5 -62t-41.5 -87.5t-13.5 -100q0 -55 13.5 -104.5t41.5 -87t72.5 -59t105.5 -21.5
q98 0 151.5 48t73.5 136h-63q-15 -60 -54 -96t-108 -36q-45 0 -77 19t-53 48t-30.5 65.5t-9.5 70.5zM101 584h328v45h-328v-45zM125 820l131 -141h51l-105 141h-77z" />
    <glyph glyph-name="Emacronacute" unicode="&#x1e16;" horiz-adv-x="593" 
d="M72 714v-714h498v58h-430v282h398v58h-398v258h425v58h-493zM157 764h328v45h-328v-45zM321 862l132 141h-78l-105 -141h51z" />
    <glyph glyph-name="emacronacute" unicode="&#x1e17;" horiz-adv-x="519" 
d="M431 294h-334q4 35 16.5 68.5t33.5 59t51 41t69 15.5q38 0 68 -15.5t51 -41t32.5 -58.5t12.5 -69zM97 241h397q2 54 -10 106.5t-39.5 93t-71.5 65.5t-106 25q-61 0 -105.5 -23.5t-72.5 -62t-41.5 -87.5t-13.5 -100q0 -55 13.5 -104.5t41.5 -87t72.5 -59t105.5 -21.5
q98 0 151.5 48t73.5 136h-63q-15 -60 -54 -96t-108 -36q-45 0 -77 19t-53 48t-30.5 65.5t-9.5 70.5zM101 584h328v45h-328v-45zM276 673l132 141h-78l-105 -141h51z" />
    <glyph glyph-name="Ecircumflexbelow" unicode="&#x1e18;" horiz-adv-x="593" 
d="M72 714v-714h498v58h-430v282h398v58h-398v258h425v58h-493zM469 -188l-114 141h-69l-113 -141h57l88 102l86 -102h65z" />
    <glyph glyph-name="ecircumflexbelow" unicode="&#x1e19;" horiz-adv-x="519" 
d="M431 294h-334q4 35 16.5 68.5t33.5 59t51 41t69 15.5q38 0 68 -15.5t51 -41t32.5 -58.5t12.5 -69zM97 241h397q2 54 -10 106.5t-39.5 93t-71.5 65.5t-106 25q-61 0 -105.5 -23.5t-72.5 -62t-41.5 -87.5t-13.5 -100q0 -55 13.5 -104.5t41.5 -87t72.5 -59t105.5 -21.5
q98 0 151.5 48t73.5 136h-63q-15 -60 -54 -96t-108 -36q-45 0 -77 19t-53 48t-30.5 65.5t-9.5 70.5zM413 -202l-114 141h-69l-113 -141h57l88 102l86 -102h65z" />
    <glyph glyph-name="Etildebelow" unicode="&#x1e1a;" horiz-adv-x="593" 
d="M72 714v-714h498v58h-430v282h398v58h-398v258h425v58h-493zM478 -47h-38q-6 -20 -17.5 -34t-34.5 -14q-14 0 -28.5 7t-31 15t-35.5 15t-40 7q-19 0 -34.5 -8.5t-27 -22t-18 -30.5t-8.5 -35h39q0 25 14.5 38t37.5 13q13 0 28 -7t32 -16t36 -16t39 -7t35 8.5t25.5 22
t17 30.5t9.5 34z" />
    <glyph glyph-name="etildebelow" unicode="&#x1e1b;" horiz-adv-x="519" 
d="M431 294h-334q4 35 16.5 68.5t33.5 59t51 41t69 15.5q38 0 68 -15.5t51 -41t32.5 -58.5t12.5 -69zM97 241h397q2 54 -10 106.5t-39.5 93t-71.5 65.5t-106 25q-61 0 -105.5 -23.5t-72.5 -62t-41.5 -87.5t-13.5 -100q0 -55 13.5 -104.5t41.5 -87t72.5 -59t105.5 -21.5
q98 0 151.5 48t73.5 136h-63q-15 -60 -54 -96t-108 -36q-45 0 -77 19t-53 48t-30.5 65.5t-9.5 70.5zM422 -61h-38q-6 -20 -17.5 -34t-34.5 -14q-14 0 -28.5 7t-31 15t-35.5 15t-40 7q-19 0 -34.5 -8.5t-27 -22t-18 -30.5t-8.5 -35h39q0 25 14.5 38t37.5 13q13 0 28 -7
t32 -16t36 -16t39 -7t35 8.5t25.5 22t17 30.5t9.5 34z" />
    <glyph glyph-name="Ecedillabreve" unicode="&#x1e1c;" horiz-adv-x="593" 
d="M72 714v-714h498v58h-430v282h398v58h-398v258h425v58h-493zM217 891h-39q5 -61 42.5 -94t98.5 -33q60 0 98.5 33.5t46.5 93.5h-39q-6 -39 -37 -60.5t-69 -21.5q-19 0 -37 5t-32 15.5t-23 26t-10 35.5zM351 0h-35l-61 -78l16 -15q18 8 51 8q17 0 30 -10t13 -28
q0 -23 -16 -33t-37 -10q-22 0 -44 4.5t-35 9.5l-13 -32q21 -11 45 -16t48 -5q19 0 38.5 5t35.5 15.5t26 26.5t10 39t-11.5 37t-29 20.5t-37.5 7t-38 -2.5z" />
    <glyph glyph-name="ecedillabreve" unicode="&#x1e1d;" horiz-adv-x="519" 
d="M431 294h-334q4 35 16.5 68.5t33.5 59t51 41t69 15.5q38 0 68 -15.5t51 -41t32.5 -58.5t12.5 -69zM97 241h397q2 54 -10 106.5t-39.5 93t-71.5 65.5t-106 25q-61 0 -105.5 -23.5t-72.5 -62t-41.5 -87.5t-13.5 -100q0 -55 13.5 -104.5t41.5 -87t72.5 -59t105.5 -21.5
q98 0 151.5 48t73.5 136h-63q-15 -60 -54 -96t-108 -36q-45 0 -77 19t-53 48t-30.5 65.5t-9.5 70.5zM161 711h-39q5 -61 42.5 -94t98.5 -33q60 0 98.5 33.5t46.5 93.5h-39q-6 -39 -37 -60.5t-69 -21.5q-19 0 -37 5t-32 15.5t-23 26t-10 35.5zM295 -11h-35l-61 -78l16 -15
q18 8 51 8q17 0 30 -10t13 -28q0 -23 -16 -33t-37 -10q-22 0 -44 4.5t-35 9.5l-13 -32q21 -11 45 -16t48 -5q19 0 38.5 5t35.5 15.5t26 26.5t10 39t-11.5 37t-29 20.5t-37.5 7t-38 -2.5z" />
    <glyph glyph-name="Fdotaccent" unicode="&#x1e1e;" horiz-adv-x="537" 
d="M72 714v-714h68v340h342v58h-342v258h385v58h-453zM264 764h68v101h-68v-101z" />
    <glyph glyph-name="fdotaccent" unicode="&#x1e1f;" horiz-adv-x="259" 
d="M259 463v53h-102v45q0 21 1 39t7.5 31.5t20.5 21.5t40 8q11 0 22 -1.5t24 -3.5v54q-15 2 -27 3t-26 1q-38 0 -62.5 -11t-38.5 -31t-19 -48t-5 -61v-47h-88v-53h88v-463h63v463h102zM105 764h68v101h-68v-101z" />
    <glyph glyph-name="Gmacron" unicode="&#x1e20;" horiz-adv-x="741" 
d="M682 0v363h-303v-58h243q1 -57 -15 -105t-48 -83t-78.5 -54.5t-105.5 -19.5q-71 0 -122 27t-83.5 71.5t-48 101t-15.5 114.5q0 59 15.5 115t48 100.5t83.5 71.5t122 27q51 0 92 -16.5t70.5 -42.5t47 -57.5t20.5 -62.5h68q-10 59 -37 103t-66 74t-89 45t-106 15
q-84 0 -147.5 -30.5t-105.5 -82t-63 -118.5t-21 -141t21 -141t63 -118t105.5 -81.5t147.5 -30.5q39 0 75.5 8t68.5 25.5t58.5 45t44.5 65.5h2l9 -130h49zM212 781h328v45h-328v-45z" />
    </font>
</defs>
</svg>
