<svg xmlns="http://www.w3.org/2000/svg">
<defs>
<font id="HelveticaNeue-Thin" horiz-adv-x="519" >
  <font-face 
    font-family="Helvetica Neue"
    font-weight="250"
    font-stretch="normal"
    units-per-em="1000"
    panose-1="2 11 4 3 2 2 2 2 2 4"
    ascent="800"
    descent="-200"
    x-height="514"
    cap-height="714"
    bbox="-356 -316 1205 1114"
    underline-thickness="50"
    underline-position="-50"
    unicode-range="U+0008-FE48"
  />
<missing-glyph horiz-adv-x="512" 
d="M0 718h512v-718h-512v718zM462 50v617h-412v-617h412zM223 251q0 56 13 81q7 13 18 27.5t28 31.5q16 15 26 26.5t15 21t7 18t2 17.5q0 36 -22.5 60.5t-53.5 24.5t-53.5 -22t-28.5 -73l-50 8q7 72 44 104.5t91 32.5t89 -35.5t35 -95.5q0 -32 -12.5 -58.5t-50.5 -61.5
q-37 -33 -43 -52q-6 -20 -6 -72h-46zM222 184h56v-67h-56v67z" />
    <glyph glyph-name="IJ" unicode="IJ" horiz-adv-x="646" 
d="M63 714h44v-714h-44v714zM382 21q61 0 93.5 20t46.5 51t15.5 69.5t1.5 75.5v477h44v-492q0 -21 -0.5 -47t-6 -52.5t-17 -51.5t-33.5 -44.5t-55.5 -31.5t-83.5 -12q-72 0 -113 23t-60.5 59t-24 79t-4.5 83h44q-3 -40 1 -77t20 -65.5t47.5 -46t84.5 -17.5z" />
    <glyph glyph-name="ij" unicode="ij" horiz-adv-x="332" 
d="M65 611v103h38v-103h-38zM65 0v514h38v-514h-38zM229 611v103h38v-103h-38zM267 514v-569q0 -26 -4 -49.5t-15.5 -41t-32 -28t-53.5 -10.5h-16h-8t-8 1v33q5 -1 11 -1.5t14 -0.5q20 0 34 4.5t23 16t13 31t4 48.5v566h38z" />
    <glyph glyph-name="fi" unicode="fi" horiz-adv-x="389" 
d="M0 514h92v106q0 27 9 46.5t24.5 31.5t36 18t43.5 6q17 0 45 -5v-33q-28 5 -45 5q-32 0 -53.5 -14.5t-21.5 -57.5v-103h107v-33h-107v-481h-38v481h-92v33zM286 714h38v-103h-38v103zM286 514h38v-514h-38v514z" />
    <glyph glyph-name="fl" unicode="fl" horiz-adv-x="389" 
d="M0 514h92v106q0 27 9 46.5t24.5 31.5t36 18t43.5 6q17 0 45 -5v-33q-28 5 -45 5q-32 0 -53.5 -14.5t-21.5 -57.5v-103h107v-33h-107v-481h-38v481h-92v33zM286 714h38v-714h-38v714z" />
    <glyph glyph-name="f_f" unicode="ff" horiz-adv-x="448" 
d="M130 481v-481h-38v481h-92v33h92v106q0 27 9 46.5t24.5 31.5t36 18t43.5 6q17 0 45 -5v-33q-28 5 -45 5q-32 0 -53.5 -14.5t-21.5 -57.5v-103h169v106q0 27 9 46.5t24.5 31.5t36 18t43.5 6q17 0 45 -5v-33q-28 5 -45 5q-32 0 -53.5 -14.5t-21.5 -57.5v-103h107v-33h-107
v-481h-38v481h-169z" />
    <glyph glyph-name="f_f_i" unicode="ffi" horiz-adv-x="596" 
d="M130 481v-481h-38v481h-92v33h92v106q0 27 9 46.5t24.5 31.5t36 18t43.5 6q17 0 45 -5v-33q-28 5 -45 5q-32 0 -53.5 -14.5t-21.5 -57.5v-103h169v106q0 27 9 46.5t24.5 31.5t36 18t43.5 6q17 0 45 -5v-33q-28 5 -45 5q-32 0 -53.5 -14.5t-21.5 -57.5v-103h107v-33h-107
v-481h-38v481h-169zM493 611v103h38v-103h-38zM493 0v514h38v-514h-38z" />
    <glyph glyph-name=".notdef" horiz-adv-x="512" 
d="M0 718h512v-718h-512v718zM462 50v617h-412v-617h412zM223 251q0 56 13 81q7 13 18 27.5t28 31.5q16 15 26 26.5t15 21t7 18t2 17.5q0 36 -22.5 60.5t-53.5 24.5t-53.5 -22t-28.5 -73l-50 8q7 72 44 104.5t91 32.5t89 -35.5t35 -95.5q0 -32 -12.5 -58.5t-50.5 -61.5
q-37 -33 -43 -52q-6 -20 -6 -72h-46zM222 184h56v-67h-56v67z" />
    <glyph glyph-name=".null" horiz-adv-x="500" 
 />
    <glyph glyph-name=".null" horiz-adv-x="500" 
 />
    <glyph glyph-name="nonmarkingreturn" unicode="&#xd;" horiz-adv-x="0" 
 />
    <glyph glyph-name="space" unicode=" " horiz-adv-x="278" 
 />
    <glyph glyph-name="exclam" unicode="!" horiz-adv-x="259" 
d="M106 473v241h48v-241l-12 -290h-24zM104 103h51v-103h-51v103z" />
    <glyph glyph-name="quotedbl" unicode="&#x22;" horiz-adv-x="315" 
d="M197 714h38v-229h-38v229zM80 714h38v-229h-38v229z" />
    <glyph glyph-name="numbersign" unicode="#" horiz-adv-x="556" 
d="M147 231h-117v33h122l24 173h-118v33h123l31 220h33l-31 -220h169l31 220h33l-31 -220h110v-33h-115l-24 -173h111v-33h-116l-32 -231h-33l32 231h-169l-32 -231h-33zM354 264l24 173h-169l-24 -173h169z" />
    <glyph glyph-name="dollar" unicode="$" horiz-adv-x="556" 
d="M50 235q0 -94 51.5 -151t156.5 -63v333l-47 11q-32 7 -63.5 18.5t-57 31t-41 50t-15.5 76.5q0 17 5 47.5t27.5 61.5t67 54.5t124.5 26.5v49h32v-49q104 -2 166 -54t66 -166h-38q-6 98 -57 139.5t-137 43.5v-310l78 -19q49 -12 82 -30.5t53 -42t28 -51t8 -58.5
q0 -56 -21.5 -93.5t-56.5 -61t-80 -34t-91 -11.5v-88h-32v88q-55 5 -100.5 20.5t-77.5 45.5t-50 75.5t-18 110.5h38zM258 393v300q-51 -2 -86 -14.5t-57.5 -32.5t-32.5 -47t-10 -58q0 -35 11.5 -58.5t31 -39t46 -25t56.5 -16.5zM290 21q43 0 81 9t67 28.5t46 50t17 74.5
q0 57 -36 93t-114 56l-61 15v-326z" />
    <glyph glyph-name="percent" unicode="%" horiz-adv-x="778" 
d="M603 714h40l-465 -738h-40zM206 346q-38 0 -68.5 14t-52.5 38t-33.5 56.5t-11.5 68.5q0 37 11.5 69.5t33 57t52.5 38.5t70 14t70 -13.5t52 -37.5t32 -57t11 -71q0 -36 -11.5 -68t-33.5 -56t-52.5 -38.5t-68.5 -14.5zM205 379q30 0 54 12t40.5 32.5t25.5 46.5t9 53
q0 29 -8 55.5t-24.5 46.5t-40.5 32t-55 12t-55 -12t-40 -32t-24.5 -46.5t-8.5 -55.5q0 -27 9 -53t25.5 -46.5t40 -32.5t52.5 -12zM406 165q0 37 11.5 69.5t33 57t52.5 38.5t70 14t70 -13.5t52 -37.5t32 -57t11 -71q0 -36 -11.5 -68t-33.5 -56t-52.5 -38.5t-68.5 -14.5
t-68.5 14t-52.5 38t-33.5 56.5t-11.5 68.5zM444 165q0 -27 9 -53t25.5 -46.5t40 -32.5t52.5 -12q30 0 54 12t40.5 32.5t25.5 46.5t9 53q0 29 -8 55.5t-24.5 46.5t-40.5 32t-55 12t-55 -12t-40 -32t-24.5 -46.5t-8.5 -55.5z" />
    <glyph glyph-name="ampersand" unicode="&#x26;" horiz-adv-x="593" 
d="M43 170q0 44 17.5 77t44.5 59t60 47t64 41q-17 21 -34 41.5t-31 43t-23 47t-9 53.5q0 28 13 50.5t34 38.5t48 25t55 9q29 0 56 -8t48 -23.5t33.5 -38.5t12.5 -53q0 -38 -13.5 -66t-34.5 -50.5t-47.5 -41t-52.5 -37.5l170 -209q11 28 17.5 58t6.5 61h38
q-2 -39 -11.5 -77.5t-24.5 -73.5l116 -143h-51l-87 106q-33 -55 -85 -86.5t-118 -31.5q-45 0 -83.5 11.5t-67 34t-45 57t-16.5 79.5zM262 412q22 14 45 30.5t42.5 36.5t32 45t12.5 55q0 20 -10 36.5t-25.5 28.5t-35.5 18.5t-41 6.5t-41 -6.5t-35.5 -18.5t-25.5 -28.5
t-10 -36.5q0 -26 10 -48.5t24 -43t30 -39t28 -36.5zM81 170q0 -35 15 -63t39.5 -47t55.5 -29t64 -10q45 0 78.5 17.5t55.5 38.5t33 39.5t11 20.5l-184 229q-28 -18 -57.5 -36.5t-54 -41.5t-40.5 -51.5t-16 -66.5z" />
    <glyph glyph-name="quotesingle" unicode="'" horiz-adv-x="204" 
d="M83 714h38v-229h-38v229z" />
    <glyph glyph-name="parenleft" unicode="(" horiz-adv-x="241" 
d="M194 -184q-61 100 -95 215t-34 235q0 123 34 241t97 224h35q-63 -106 -95.5 -223.5t-32.5 -241.5q0 -120 31 -233.5t94 -216.5h-34v0z" />
    <glyph glyph-name="parenright" unicode=")" horiz-adv-x="241" 
d="M10 -184q63 106 95.5 223.5t32.5 241.5q0 120 -31 233.5t-94 216.5h34q61 -100 95 -215t34 -235q0 -123 -34 -241t-97 -224h-35v0z" />
    <glyph glyph-name="asterisk" unicode="*" horiz-adv-x="352" 
d="M72 454l81 102l-124 41l9 28l123 -41v130h29v-130l122 41l10 -28l-123 -41l76 -102l-22 -20l-77 106l-80 -106z" />
    <glyph glyph-name="plus" unicode="+" horiz-adv-x="600" 
d="M48 271h233v233h38v-233h233v-38h-233v-233h-38v233h-233v38z" />
    <glyph glyph-name="comma" unicode="," horiz-adv-x="278" 
d="M113 103h51v-103q0 -20 -3 -39.5t-10.5 -36.5t-20 -30t-30.5 -20v33q11 5 17.5 16.5t10.5 25t5 27.5t1 24h-21v103z" />
    <glyph glyph-name="hyphen" unicode="-" horiz-adv-x="352" 
d="M69 291h214v-38h-214v38z" />
    <glyph glyph-name="period" unicode="." horiz-adv-x="278" 
d="M113 103h51v-103h-51v103z" />
    <glyph glyph-name="slash" unicode="/" horiz-adv-x="333" 
d="M305 731h41l-318 -748h-41z" />
    <glyph glyph-name="zero" unicode="0" horiz-adv-x="556" 
d="M278 -12q-75 0 -123 32.5t-76.5 84t-39.5 115t-11 125.5t11 125.5t39.5 115t76.5 84t123 32.5t123 -32.5t76.5 -84t39.5 -115t11 -125.5t-11 -125.5t-39.5 -115t-76.5 -84t-123 -32.5zM278 21q64 0 105.5 31t65 79t32.5 105t9 109t-9 109t-32.5 105t-65 79t-105.5 31
q-65 0 -106 -31t-64.5 -79t-32.5 -105t-9 -109t9 -109t32.5 -105t64.5 -79t106 -31z" />
    <glyph glyph-name="one" unicode="1" horiz-adv-x="556" 
d="M293 616q-37 -39 -85 -61t-100 -27v33q60 9 109 42t80 87h34v-690h-38v616z" />
    <glyph glyph-name="two" unicode="2" horiz-adv-x="556" 
d="M46 0q3 48 22 86.5t48.5 70t66 58.5t74.5 52q37 25 73 50.5t64.5 54.5t45.5 63.5t17 78.5q0 35 -14 63.5t-37.5 49t-54 31.5t-64.5 11q-47 0 -82 -16.5t-58 -45t-34.5 -67t-11.5 -83.5h-38q6 126 60.5 185.5t157.5 59.5q44 0 83 -11.5t68 -35t46 -59t17 -83.5
q0 -61 -28.5 -107.5t-72 -84.5t-94 -71t-95 -65.5t-76 -68t-35.5 -78.5h412v-38h-460v0z" />
    <glyph glyph-name="three" unicode="3" horiz-adv-x="556" 
d="M74 228q-2 -48 11.5 -86.5t39.5 -65t64 -41t86 -14.5q38 0 74 11t63.5 32.5t44 53.5t16.5 73q0 49 -20 81.5t-53 50.5t-74.5 24t-84.5 3v33q38 -2 76.5 3.5t69.5 22t50.5 45.5t19.5 74q0 36 -16.5 63t-43 44t-59 25.5t-63.5 8.5q-45 0 -79 -15t-56.5 -41t-34.5 -62
t-14 -79h-38q0 51 15.5 93.5t44.5 72.5t70 47t92 17q42 0 81.5 -10t70 -31t49.5 -54t19 -79q0 -31 -9.5 -58t-27.5 -48t-43 -34.5t-55 -17.5v-2q35 -4 63 -19t47.5 -38.5t30 -54t10.5 -65.5q0 -51 -19 -89t-51 -63.5t-75 -38t-91 -12.5q-57 0 -102.5 16t-77 46.5t-47 75
t-12.5 102.5h38z" />
    <glyph glyph-name="four" unicode="4" horiz-adv-x="556" 
d="M29 214l336 476h38v-481h116v-33h-116v-176h-38v176h-336v38zM365 209v429h-2l-296 -429h298z" />
    <glyph glyph-name="five" unicode="5" horiz-adv-x="556" 
d="M75 211q-1 -43 14.5 -78t42.5 -60t63.5 -38.5t78.5 -13.5q44 0 80 16.5t62 44.5t40 66t14 80t-14.5 79t-41 64t-62.5 43t-78 16q-60 0 -102 -24.5t-75 -72.5h-39l72 357h349v-33h-319l-59 -275l2 -2q30 42 74.5 62.5t96.5 20.5q51 0 94 -17.5t74 -48.5t48.5 -74.5
t17.5 -94.5t-17 -95t-48 -76.5t-74 -50.5t-95 -18q-50 0 -94 15.5t-77 44t-51 70t-15 93.5h38z" />
    <glyph glyph-name="six" unicode="6" horiz-adv-x="556" 
d="M288 -12q-72 0 -119.5 27t-75.5 71.5t-39.5 103t-11.5 121.5q0 42 4 87.5t14.5 89t28.5 82.5t46.5 68.5t68 46.5t92.5 17q88 0 144.5 -47t66.5 -135h-38q-6 33 -21 60.5t-37.5 47t-51.5 30.5t-63 11q-71 0 -114 -37t-65.5 -91.5t-29.5 -117t-7 -113.5l2 -2q11 33 32 60.5
t48 47t59 30t67 10.5q51 0 93.5 -18t73 -49.5t47.5 -74.5t17 -94q0 -50 -17.5 -92.5t-48 -73.5t-73 -48.5t-92.5 -17.5zM93 220q0 -43 15.5 -79.5t41.5 -63t61.5 -41.5t76.5 -15q42 0 77 16t61 43t40.5 63t14.5 77q0 40 -14.5 77t-40 65t-61 44.5t-77.5 16.5
q-43 0 -78.5 -16t-61.5 -43.5t-40.5 -64.5t-14.5 -79z" />
    <glyph glyph-name="seven" unicode="7" horiz-adv-x="556" 
d="M160 0q6 74 20.5 150t47.5 156.5t89.5 167.5t145.5 183h-407v33h445v-38q-52 -58 -100.5 -119t-88 -137t-68 -172.5t-40.5 -223.5h-44v0z" />
    <glyph glyph-name="eight" unicode="8" horiz-adv-x="556" 
d="M39 198q0 75 40.5 122.5t112.5 55.5v2q-63 12 -95 52.5t-32 98.5q0 49 18 82t48 53t68 29t79 9q40 0 78.5 -9t68.5 -29t48 -53t18 -82q0 -58 -32 -98.5t-95 -52.5v-2q72 -8 112.5 -55.5t40.5 -122.5q0 -54 -19 -93.5t-51 -65.5t-76 -38.5t-93 -12.5q-50 0 -93.5 12.5
t-75.5 38.5t-51 65.5t-19 93.5zM278 392q33 0 64.5 7.5t56 24t39.5 42.5t15 63q0 39 -14.5 66t-39 43.5t-56 23.5t-65.5 7t-65.5 -7t-56 -23.5t-39 -43.5t-14.5 -66q0 -37 15 -63t39.5 -42.5t56 -24t64.5 -7.5zM77 198q0 -46 16.5 -79.5t44 -55t64 -32t76.5 -10.5t76 10.5
t64 32t44.5 55t16.5 79.5q0 43 -16 73.5t-44 50t-64.5 28.5t-76.5 9q-41 0 -77 -9t-64 -28.5t-44 -50t-16 -73.5z" />
    <glyph glyph-name="nine" unicode="9" horiz-adv-x="556" 
d="M93 170q12 -66 57.5 -107.5t115.5 -41.5q47 0 81.5 17.5t58.5 46t39 65.5t23 76t11 77t3 69l-2 2q-11 -29 -28.5 -54t-42.5 -44.5t-57.5 -30.5t-72.5 -11q-52 0 -95 17.5t-73.5 49t-47.5 74.5t-17 95q0 51 17.5 93.5t48.5 73.5t73.5 48t93.5 17q26 0 54.5 -5t55 -17.5
t50.5 -35.5t42 -58.5t28.5 -86.5t10.5 -120q0 -42 -4 -87.5t-14.5 -89t-28.5 -82.5t-46.5 -68.5t-68 -46.5t-92.5 -17q-88 0 -144.5 47t-66.5 135h38zM279 267q43 0 78.5 16t61.5 43.5t40.5 64.5t14.5 79q0 41 -15 77.5t-41 63.5t-61.5 42.5t-77.5 15.5t-77.5 -16t-61.5 -43
t-41 -63.5t-15 -76.5q0 -41 15 -78t41 -64.5t61.5 -44t77.5 -16.5z" />
    <glyph glyph-name="colon" unicode=":" horiz-adv-x="278" 
d="M113 514h51v-103h-51v103zM113 103h51v-103h-51v103z" />
    <glyph glyph-name="semicolon" unicode=";" horiz-adv-x="278" 
d="M113 514h51v-103h-51v103zM113 103h51v-103q0 -20 -3 -39.5t-10.5 -36.5t-20 -30t-30.5 -20v33q11 5 17.5 16.5t10.5 25t5 27.5t1 24h-21v103z" />
    <glyph glyph-name="less" unicode="&#x3c;" horiz-adv-x="600" 
d="M46 280l508 234v-42l-475 -218l475 -220v-42l-508 236v52z" />
    <glyph glyph-name="equal" unicode="=" horiz-adv-x="600" 
d="M48 369h504v-38h-504v38zM48 175h504v-38h-504v38z" />
    <glyph glyph-name="greater" unicode="&#x3e;" horiz-adv-x="600" 
d="M46 34l475 218l-475 220v42l508 -236v-52l-508 -234v42z" />
    <glyph glyph-name="question" unicode="?" 
d="M236 181q0 40 7 70.5t19 54.5t28 43.5t34 36.5t36 35.5t32 38.5t22.5 43t8.5 49q0 37 -13.5 63.5t-36 44t-51.5 25.5t-60 8q-45 0 -79 -15t-56.5 -42t-34 -63.5t-11.5 -79.5h-38q0 53 14.5 97t42.5 75.5t69.5 48.5t95.5 17q40 0 75.5 -11t62.5 -33t42.5 -56t15.5 -79
q0 -32 -7.5 -56.5t-20 -44.5t-28.5 -36.5t-33 -32.5q-17 -15 -34.5 -31.5t-31.5 -39.5t-23 -54.5t-9 -75.5h-38zM231 103h51v-103h-51v103z" />
    <glyph glyph-name="at" unicode="@" horiz-adv-x="800" 
d="M195 282q0 52 17.5 105t49 96t74.5 70t95 27q24 0 43.5 -7.5t33.5 -20.5t23 -29t12 -34h2l23 71h41l-96 -296q-5 -16 -10.5 -32.5t-5.5 -27.5q0 -15 11.5 -24.5t27.5 -9.5q34 0 66.5 23.5t57.5 60.5t40.5 82t15.5 87q0 63 -26 113.5t-68 86.5t-96 55.5t-109 19.5
q-69 0 -129.5 -27.5t-105.5 -75t-71.5 -110t-26.5 -132.5q0 -74 29 -136t76 -106.5t107 -69.5t123 -25q84 0 156.5 41.5t118.5 110.5h44q-23 -43 -57.5 -77t-76.5 -58t-89.5 -37t-95.5 -13q-80 0 -148 29.5t-118 80.5t-78.5 120t-28.5 147q0 77 29.5 144.5t80 118
t117.5 79.5t142 29q71 0 133 -23t107.5 -64.5t72 -98.5t26.5 -125q0 -57 -21 -109t-54.5 -91.5t-74 -63.5t-79.5 -24q-26 0 -45.5 17.5t-20.5 53.5h-2q-24 -35 -58 -53t-76 -18q-29 0 -52.5 12t-40 32.5t-26 48t-9.5 57.5zM233 287q0 -57 29 -89.5t74 -32.5q29 0 60.5 22.5
t55.5 56.5q28 41 46.5 92.5t18.5 92.5q0 14 -2.5 34t-12 39t-28 32t-49.5 13q-42 0 -77.5 -26t-61 -65t-39.5 -84.5t-14 -84.5z" />
    <glyph glyph-name="A" unicode="A" horiz-adv-x="593" 
d="M275 714h48l282 -714h-47l-90 229h-342l-91 -229h-47zM454 267l-153 404h-2l-159 -404h314z" />
    <glyph glyph-name="B" unicode="B" horiz-adv-x="630" 
d="M63 714h286q64 0 107 -16t69 -42t37.5 -59.5t11.5 -67.5q0 -29 -10 -55t-28.5 -46t-44 -33.5t-56.5 -17.5l2 -2q7 1 33 -6t54.5 -26.5t51 -54t22.5 -88.5q0 -49 -18 -86t-50.5 -62.5t-78.5 -38.5t-102 -13h-286v714zM349 390q91 0 136 40.5t45 106.5q0 39 -15 65.5
t-40 43t-57.5 23.5t-68.5 7h-242v-286h242zM349 38q96 0 150.5 40.5t54.5 121.5q0 46 -19 75.5t-48.5 46.5t-66 23.5t-71.5 6.5h-242v-314h242z" />
    <glyph glyph-name="C" unicode="C" horiz-adv-x="704" 
d="M36 357q0 78 23 146.5t66.5 119t107 79.5t143.5 29q63 0 109 -16.5t77.5 -41t51.5 -53.5t30.5 -54.5t14.5 -44t4 -20.5h-44q-7 45 -29 80.5t-55 60.5t-73.5 38t-85.5 13q-70 0 -125 -27t-93 -72.5t-58 -106.5t-20 -130t20 -130t58 -106.5t93 -72.5t125 -27
q52 0 97.5 21.5t79.5 57t54.5 82t23.5 96.5h44q-6 -64 -31.5 -118t-65 -93.5t-91.5 -61.5t-111 -22q-80 0 -143.5 29t-107 79.5t-66.5 119t-23 146.5z" />
    <glyph glyph-name="D" unicode="D" horiz-adv-x="667" 
d="M63 714h234q96 0 159.5 -30t101.5 -80t53.5 -114t15.5 -132q0 -76 -19.5 -141.5t-60.5 -113.5t-103.5 -75.5t-148.5 -27.5h-232v714zM299 38q50 0 100.5 15.5t91.5 52t66.5 98t25.5 154.5q0 73 -14.5 125t-38 87.5t-54 56t-63 31.5t-65 14.5t-58.5 3.5h-183v-638h192z
" />
    <glyph glyph-name="E" unicode="E" horiz-adv-x="560" 
d="M63 714h480v-38h-436v-286h410v-38h-410v-314h441v-38h-485v714z" />
    <glyph glyph-name="F" unicode="F" horiz-adv-x="514" 
d="M63 714h448v-38h-404v-286h364v-38h-364v-352h-44v714z" />
    <glyph glyph-name="G" unicode="G" horiz-adv-x="741" 
d="M37 353q0 76 22.5 144.5t65.5 120.5t105.5 82.5t143.5 30.5q55 0 105 -16t89.5 -47t66.5 -75t36 -100h-42q-25 94 -90 147t-164 53q-72 0 -127 -28t-92 -75t-56 -108.5t-19 -128.5q0 -68 18.5 -128.5t55 -105.5t91.5 -71.5t129 -26.5q64 0 115 21t86.5 59t53.5 91.5
t15 119.5h-263v38h301v-350h-38v152h-2q-13 -39 -39 -70.5t-61.5 -53t-79 -33.5t-90.5 -12q-81 0 -143.5 29t-105.5 79t-65 117.5t-22 144.5z" />
    <glyph glyph-name="H" unicode="H" horiz-adv-x="670" 
d="M63 714h44v-324h456v324h44v-714h-44v352h-456v-352h-44v714z" />
    <glyph glyph-name="I" unicode="I" horiz-adv-x="170" 
d="M63 714h44v-714h-44v714z" />
    <glyph glyph-name="J" unicode="J" horiz-adv-x="481" 
d="M217 21q61 0 93.5 20t46.5 51t15.5 69.5t1.5 75.5v477h44v-492q0 -21 -0.5 -47t-6 -52.5t-17 -51.5t-33.5 -44.5t-55.5 -31.5t-83.5 -12q-72 0 -113 23t-60.5 59t-24 79t-4.5 83h44q-3 -40 1 -77t20 -65.5t47.5 -46t84.5 -17.5z" />
    <glyph glyph-name="K" unicode="K" horiz-adv-x="613" 
d="M63 714h44v-411l449 411h57l-326 -297l346 -417h-55l-323 387l-148 -135v-252h-44v714z" />
    <glyph glyph-name="L" unicode="L" horiz-adv-x="500" 
d="M63 714h44v-676h405v-38h-449v714z" />
    <glyph glyph-name="M" unicode="M" horiz-adv-x="809" 
d="M63 714h63l279 -665h2l276 665h63v-714h-44v660h-2l-272 -660h-44l-275 660h-2v-660h-44v714z" />
    <glyph glyph-name="N" unicode="N" horiz-adv-x="678" 
d="M63 714h55l451 -655h2v655h44v-714h-52l-454 660h-2v-660h-44v714z" />
    <glyph glyph-name="O" unicode="O" horiz-adv-x="741" 
d="M710 357q0 -78 -23 -146.5t-66.5 -119t-106.5 -79.5t-143 -29t-143.5 29t-107 79.5t-66.5 119t-23 146.5t23 146.5t66.5 119t107 79.5t143.5 29t143 -29t106.5 -79.5t66.5 -119t23 -146.5zM75 357q0 -69 20 -130t58 -106.5t93 -72.5t125 -27t124.5 27t92.5 72.5t58 106.5
t20 130t-20 130t-58 106.5t-92.5 72.5t-124.5 27t-125 -27t-93 -72.5t-58 -106.5t-20 -130z" />
    <glyph glyph-name="P" unicode="P" horiz-adv-x="591" 
d="M63 714h304q30 0 66.5 -7t68 -28.5t52.5 -61t21 -103.5q0 -94 -58 -145t-166 -51h-244v-318h-44v714zM107 356h251q48 0 81.5 14.5t53.5 37.5t29 51t9 56q0 20 -6 47.5t-24 53t-50.5 43t-86.5 17.5h-257v-320z" />
    <glyph glyph-name="Q" unicode="Q" horiz-adv-x="741" 
d="M573 48q-83 -65 -202 -65q-80 0 -143.5 29t-107 79.5t-66.5 119t-23 146.5t23 146.5t66.5 119t107 79.5t143.5 29t143 -29t106.5 -79.5t66.5 -119t23 -146.5q0 -88 -27.5 -160t-79.5 -123l111 -80l-23 -31zM568 99q48 48 73 114t25 144q0 69 -20 130t-58 106.5
t-92.5 72.5t-124.5 27t-125 -27t-93 -72.5t-58 -106.5t-20 -130t20 -130t58 -106.5t93 -72.5t125 -27q99 0 167 53l-108 77l23 31z" />
    <glyph glyph-name="R" unicode="R" horiz-adv-x="630" 
d="M63 714h298q47 0 88 -9.5t72 -31t48.5 -56.5t17.5 -87q0 -72 -40.5 -121.5t-112.5 -61.5v-2q49 -6 77.5 -26t42.5 -49t18 -64t4 -70v-41t2 -37.5t6.5 -32.5t12.5 -25h-49q-14 25 -15.5 58.5t-1.5 69.5t-3 71.5t-19 63.5t-50.5 45t-97.5 17h-254v-325h-44v714zM361 363
q39 0 72.5 9.5t57.5 29.5t38 51t14 74q0 40 -15 68.5t-40 46.5t-58 26t-69 8h-254v-313h254z" />
    <glyph glyph-name="S" unicode="S" horiz-adv-x="630" 
d="M529 510q-2 46 -19.5 80t-47.5 57t-71.5 34.5t-90.5 11.5q-30 0 -64.5 -7t-64 -24.5t-48.5 -47t-19 -73.5q0 -43 21 -70t55 -43.5t78 -26.5t89 -19q46 -9 89.5 -21.5t78 -34t55.5 -56t21 -86.5q0 -56 -24 -94t-60.5 -62t-81 -34.5t-85.5 -10.5q-63 0 -118 13.5t-96 44
t-64.5 78.5t-22.5 117h44q-3 -59 17 -99.5t55.5 -66.5t83.5 -37.5t101 -11.5q32 0 68.5 8t67 27t51 50t20.5 78q0 45 -21 73.5t-55.5 46t-78 28t-89.5 19.5q-45 9 -89 21t-78 32.5t-55 53t-21 83.5t21.5 87.5t56 59t77.5 33t85 10.5q56 0 104.5 -12.5t85 -39t58.5 -68.5
t25 -101h-44z" />
    <glyph glyph-name="T" unicode="T" 
d="M-14 676v38h547v-38h-252v-676h-44v676h-251z" />
    <glyph glyph-name="U" unicode="U" horiz-adv-x="672" 
d="M107 714v-428q0 -21 2 -49t10 -57.5t22.5 -58t39.5 -51t61.5 -36t88.5 -13.5q66 0 110.5 18.5t72 53t39.5 83.5t12 110v428h44v-428q0 -64 -13.5 -119t-45.5 -96t-85.5 -64.5t-133.5 -23.5q-63 0 -108 16t-74.5 41.5t-46.5 58.5t-26 66.5t-11 65t-2 55.5v428h44z" />
    <glyph glyph-name="V" unicode="V" horiz-adv-x="556" 
d="M277 38h2l247 676h44l-267 -714h-51l-266 714h46z" />
    <glyph glyph-name="W" unicode="W" horiz-adv-x="889" 
d="M-6 714h45l186 -667h2l189 667h55l192 -667h2l183 667h47l-205 -714h-50l-196 676h-2l-193 -676h-49z" />
    <glyph glyph-name="X" unicode="X" horiz-adv-x="556" 
d="M1 714h51l226 -314l231 314h50l-252 -347l266 -367h-53l-242 334l-243 -334h-52l268 367z" />
    <glyph glyph-name="Y" unicode="Y" horiz-adv-x="574" 
d="M546 714h49l-287 -415v-299h-44v299l-285 415h50l258 -378z" />
    <glyph glyph-name="Z" unicode="Z" horiz-adv-x="537" 
d="M28 714h501v-38l-484 -638h493v-38h-539v38l482 638h-453v38z" />
    <glyph glyph-name="bracketleft" unicode="[" horiz-adv-x="241" 
d="M132 698v-849h99v-33h-137v915h137v-33h-99z" />
    <glyph glyph-name="backslash" unicode="\" horiz-adv-x="333" 
d="M305 -17l-318 748h41l318 -748h-41z" />
    <glyph glyph-name="bracketright" unicode="]" horiz-adv-x="241" 
d="M109 -151v849h-99v33h137v-915h-137v33h99z" />
    <glyph glyph-name="asciicircum" unicode="^" horiz-adv-x="600" 
d="M519 237l-218 420l-220 -420h-42l236 453h52l234 -453h-42z" />
    <glyph glyph-name="underscore" unicode="_" horiz-adv-x="500" 
d="M0 -125v50h500v-50h-500z" />
    <glyph glyph-name="grave" unicode="`" horiz-adv-x="167" 
d="M104 590l-134 140h51l120 -140h-37z" />
    <glyph glyph-name="a" unicode="a" horiz-adv-x="500" 
d="M397 102h-2q-9 -23 -26 -43.5t-41.5 -36.5t-55.5 -25t-68 -9q-82 0 -127 35.5t-45 109.5q0 45 18 73.5t45.5 45t61 23.5t64.5 10l59 5q41 3 64.5 9.5t35.5 18t15 29.5t3 45q0 21 -8 39t-25 32t-44 22t-66 8q-69 0 -111.5 -34t-46.5 -103h-38q4 85 54.5 127.5t143.5 42.5
t135.5 -36.5t42.5 -95.5v-299q0 -11 0.5 -22t3.5 -20t10 -14.5t20 -5.5q10 0 28 3v-32q-15 -4 -31 -4q-23 0 -36.5 6t-20.5 16t-9.5 23.5t-2.5 29.5v27zM397 292q-14 -17 -42.5 -23t-63.5 -9l-64 -6q-28 -3 -56 -8.5t-50.5 -18.5t-36.5 -35.5t-14 -58.5q0 -57 36 -84.5
t99 -27.5q65 0 103 23.5t58 54t25.5 59t5.5 38.5v96z" />
    <glyph glyph-name="b" unicode="b" horiz-adv-x="556" 
d="M65 714h38v-309h2q11 30 31 52.5t46 38t56 23t62 7.5q57 0 98.5 -20t69.5 -55t41.5 -81.5t13.5 -100.5q0 -92 -25 -147.5t-60 -85t-73 -39t-65 -9.5q-51 0 -86.5 16t-58.5 37.5t-35 42.5t-15 31h-2v-115h-38v714zM300 21q51 0 86 22t57 57.5t32 80t10 88.5q0 43 -11.5 83
t-35 71.5t-58 50.5t-80.5 19q-50 0 -87 -17t-61 -47t-36 -71t-12 -89q0 -47 11 -92t34.5 -79.5t60.5 -55.5t90 -21z" />
    <glyph glyph-name="c" unicode="c" 
d="M443 355q-3 34 -17.5 60t-37.5 43t-53.5 26t-65.5 9q-48 0 -85 -19.5t-62 -52t-38 -74t-13 -85.5q0 -52 12 -96t37 -76.5t62 -50.5t87 -18q36 0 66.5 12t54 33t38.5 50.5t20 64.5h38q-6 -46 -25 -82t-48 -60.5t-66 -37.5t-78 -13q-63 0 -107.5 22.5t-73 60.5t-42 87.5
t-13.5 103.5t15.5 102t45.5 84t74 57t101 21q42 0 78.5 -10.5t65 -31.5t46.5 -53.5t22 -75.5h-38z" />
    <glyph glyph-name="d" unicode="d" horiz-adv-x="556" 
d="M453 110h-2q-32 -61 -80 -91.5t-117 -30.5q-58 0 -100 22t-69 59t-40 85.5t-13 101.5q0 57 14 106.5t42.5 85.5t71.5 57t101 21q31 0 61 -8.5t55.5 -24.5t44.5 -40t29 -54h2v315h38v-714h-38v110zM262 21q49 0 84.5 20t59 53t35 75.5t11.5 86.5q0 45 -11.5 87.5t-34.5 76
t-59.5 53.5t-85.5 20q-51 0 -87 -19.5t-59.5 -52.5t-34 -76t-10.5 -89q0 -45 11.5 -87.5t35 -75.5t59.5 -52.5t86 -19.5z" />
    <glyph glyph-name="e" unicode="e" 
d="M71 252v-6q0 -45 12 -86t35.5 -72t59 -49t82.5 -18q77 0 122 40.5t62 112.5h38q-17 -90 -73.5 -138t-149.5 -48q-57 0 -99.5 20.5t-71 56t-42.5 84t-14 104.5q0 54 14.5 103.5t43.5 87t72.5 60t102.5 22.5q54 0 95.5 -20t69.5 -54.5t42.5 -80t14.5 -97.5q0 -5 -0.5 -11.5
t-0.5 -10.5h-415zM448 285q-2 42 -14 79.5t-35.5 66t-57 45.5t-76.5 17q-46 0 -81 -17.5t-59 -46t-37 -66.5t-16 -78h376z" />
    <glyph glyph-name="f" unicode="f" horiz-adv-x="241" 
d="M0 481v33h92v106q0 27 9 46.5t24.5 31.5t36 18t43.5 6q17 0 45 -5v-33q-28 5 -45 5q-32 0 -53.5 -14.5t-21.5 -57.5v-103h107v-33h-107v-481h-38v481h-92z" />
    <glyph glyph-name="g" unicode="g" horiz-adv-x="537" 
d="M481 514v-487q0 -43 -10 -83.5t-34.5 -71.5t-67.5 -49.5t-109 -18.5q-41 0 -77 8.5t-63 27t-43.5 49t-18.5 75.5h38q3 -34 17 -58t36.5 -39.5t50.5 -22.5t60 -7q53 0 88.5 16t56.5 41.5t29.5 58t8.5 65.5v118h-2q-27 -57 -73.5 -87t-112.5 -30q-57 0 -98.5 19.5t-69 54
t-41 80.5t-13.5 100q0 51 14.5 97t42.5 80.5t69.5 55t95.5 20.5q61 0 112.5 -31t73.5 -88h2v107h38zM255 493q-47 0 -81.5 -19t-57 -50t-34 -70.5t-11.5 -80.5q0 -45 11.5 -85.5t35 -70.5t58 -47.5t79.5 -17.5q47 0 82 18t58.5 49t35 70.5t11.5 83.5q0 43 -11.5 83t-35 70.5
t-58.5 48.5t-82 18z" />
    <glyph glyph-name="h" unicode="h" 
d="M94 714v-310h2q10 29 28.5 51.5t43 38.5t53.5 24t59 8q45 0 76.5 -11t51.5 -29t31.5 -40.5t16.5 -45.5t6 -44.5t1 -37.5v-318h-38v325q0 19 -3 48t-17.5 55.5t-44 45.5t-81.5 19q-44 0 -78 -16t-58 -44.5t-36.5 -68t-12.5 -86.5v-278h-38v714h38z" />
    <glyph glyph-name="i" unicode="i" horiz-adv-x="168" 
d="M65 611v103h38v-103h-38zM65 0v514h38v-514h-38z" />
    <glyph glyph-name="j" unicode="j" horiz-adv-x="168" 
d="M65 611v103h38v-103h-38zM103 514v-569q0 -26 -4 -49.5t-15.5 -41t-32 -28t-53.5 -10.5h-16h-8t-8 1v33q5 -1 11 -1.5t14 -0.5q20 0 34 4.5t23 16t13 31t4 48.5v566h38z" />
    <glyph glyph-name="k" unicode="k" horiz-adv-x="463" 
d="M58 714h38v-473l317 273h55l-225 -192l241 -322h-52l-219 293l-117 -99v-194h-38v714z" />
    <glyph glyph-name="l" unicode="l" horiz-adv-x="168" 
d="M103 714v-714h-38v714h38z" />
    <glyph glyph-name="m" unicode="m" horiz-adv-x="796" 
d="M57 514h38v-105h2q6 24 21 45.5t36.5 37.5t48 25t55.5 9q37 0 64 -9.5t46 -25t30 -35t15 -39.5h2q23 54 61.5 81.5t101.5 27.5q35 0 64.5 -10.5t51 -32t33.5 -54.5t12 -78v-351h-38v352q0 49 -15 77t-35.5 42.5t-41 18t-31.5 3.5q-35 0 -64.5 -12t-51 -36t-33.5 -59.5
t-12 -81.5v-304h-38v352q0 48 -14.5 76.5t-34 42.5t-40 18t-32.5 4q-27 0 -56 -11t-53 -34t-39 -59t-15 -85v-304h-38v514z" />
    <glyph glyph-name="n" unicode="n" 
d="M56 514h38v-110h2q10 29 28.5 51.5t43 38.5t53.5 24t59 8q45 0 76.5 -11t51.5 -29t31.5 -40.5t16.5 -45.5t6 -44.5t1 -37.5v-318h-38v325q0 19 -3 48t-17.5 55.5t-44 45.5t-81.5 19q-44 0 -78 -16t-58 -44.5t-36.5 -68t-12.5 -86.5v-278h-38v514z" />
    <glyph glyph-name="o" unicode="o" horiz-adv-x="537" 
d="M32 257q0 55 15.5 103.5t45.5 85.5t74 58.5t101 21.5t101 -21.5t74 -58.5t45.5 -85.5t15.5 -103.5t-15.5 -104t-45.5 -85.5t-74 -58t-101 -21.5t-101 21.5t-74 58t-45.5 85.5t-15.5 104zM70 257q0 -46 13 -88.5t38 -75.5t62 -52.5t85 -19.5t85 19.5t62 52.5t38 75.5
t13 88.5t-13 88.5t-38 75.5t-62 52.5t-85 19.5t-85 -19.5t-62 -52.5t-38 -75.5t-13 -88.5z" />
    <glyph glyph-name="p" unicode="p" horiz-adv-x="556" 
d="M103 396h2q6 19 20 42t37 42.5t55.5 32.5t74.5 13q59 0 102.5 -22t72 -59t42.5 -86t14 -103q0 -59 -14 -108t-42.5 -84.5t-72 -55.5t-102.5 -20q-64 0 -114 28t-73 91h-2v-291h-38v698h38v-118zM292 21q50 0 86.5 19t60 51t35 74.5t11.5 90.5q0 44 -11 86.5t-34 76
t-59.5 54t-88.5 20.5q-51 0 -87 -20t-58.5 -53t-32.5 -75.5t-10 -88.5t9 -88.5t30.5 -75t58 -52t90.5 -19.5z" />
    <glyph glyph-name="q" unicode="q" horiz-adv-x="556" 
d="M453 115h-2q-10 -30 -29 -54t-44.5 -40t-55.5 -24.5t-61 -8.5q-58 0 -101 21t-71.5 57t-42.5 85.5t-14 106.5q0 53 13 101.5t40 85.5t69 59t100 22q69 0 117 -30.5t80 -91.5h2v110h38v-698h-38v299zM261 21q49 0 85.5 20t59.5 53.5t34.5 76t11.5 87.5q0 44 -11.5 86.5
t-35 75.5t-59 53t-84.5 20q-50 0 -86 -19.5t-59.5 -52.5t-35 -75.5t-11.5 -87.5q0 -47 10.5 -89.5t34 -75.5t59.5 -52.5t87 -19.5z" />
    <glyph glyph-name="r" unicode="r" horiz-adv-x="278" 
d="M94 400h3q7 25 25.5 47t45 38t59 24.5t67.5 7.5v-38q-30 4 -68.5 -6t-73.5 -44q-14 -15 -24.5 -29t-17.5 -31t-11 -38t-5 -50v-281h-38v514h38v-114z" />
    <glyph glyph-name="s" unicode="s" horiz-adv-x="481" 
d="M74 171q2 -36 16 -63.5t36.5 -47t52.5 -29.5t65 -10q25 0 53.5 4.5t53 16.5t40.5 33.5t16 54.5q0 43 -26 65t-65.5 34t-85 19.5t-85 22.5t-65.5 42.5t-26 80.5q0 38 17 63.5t43.5 40.5t59.5 21.5t66 6.5q40 0 75 -9t60.5 -29t40 -51t14.5 -75h-38q0 35 -11.5 60t-32 40.5
t-48.5 23t-60 7.5q-26 0 -52.5 -5t-47.5 -17t-34.5 -31t-13.5 -46q0 -31 15 -50t39.5 -30.5t55 -18.5t61.5 -14q38 -7 71.5 -16.5t58 -26t38.5 -42.5t14 -66q0 -42 -19 -69t-48 -43.5t-64.5 -23t-69.5 -6.5q-44 0 -81.5 11.5t-65.5 35t-44 57.5t-17 79h38z" />
    <glyph glyph-name="t" unicode="t" horiz-adv-x="259" 
d="M245 481h-112v-359q0 -31 7 -49t21.5 -27.5t35 -11.5t47.5 -1v-33q-29 -2 -56.5 0.5t-48.5 15t-33.5 37.5t-10.5 69v359h-95v33h95v160h38v-160h112v-33z" />
    <glyph glyph-name="u" unicode="u" 
d="M463 0h-38v110h-2q-10 -29 -28.5 -51.5t-43 -38.5t-53.5 -24t-59 -8q-45 0 -76.5 11t-51.5 29t-31.5 40.5t-16.5 45.5t-6 44.5t-1 37.5v318h38v-325q0 -20 3 -48.5t17.5 -55t43.5 -45.5t82 -19q43 0 77.5 16t58.5 44.5t36.5 68t12.5 86.5v278h38v-514z" />
    <glyph glyph-name="v" unicode="v" horiz-adv-x="444" 
d="M252 0h-47l-207 514h44l186 -470h2l174 470h42z" />
    <glyph glyph-name="w" unicode="w" horiz-adv-x="704" 
d="M184 44h2l140 470h51l141 -470h2l144 470h42l-165 -514h-47l-141 466h-2l-142 -466h-48l-163 514h41z" />
    <glyph glyph-name="x" unicode="x" horiz-adv-x="444" 
d="M196 270l-188 244h53l161 -215l162 215h49l-186 -244l203 -270h-52l-176 241l-180 -241h-48z" />
    <glyph glyph-name="y" unicode="y" horiz-adv-x="444" 
d="M-6 514h45l191 -469l176 469h43l-220 -569q-16 -38 -29.5 -65.5t-30.5 -40.5q-20 -16 -47.5 -19.5t-72.5 -3.5v33q41 0 64 6.5t43 26.5q11 11 23 40.5t30 80.5z" />
    <glyph glyph-name="z" unicode="z" horiz-adv-x="426" 
d="M417 33v-33h-408v36l345 445h-318v33h365v-36l-346 -445h362z" />
    <glyph glyph-name="braceleft" unicode="{" horiz-adv-x="333" 
d="M293 698h-48q-31 0 -41.5 -23t-10.5 -80v-157q0 -50 -9 -80.5t-21 -47.5t-23.5 -24t-16.5 -10q5 -5 16.5 -13t23.5 -25.5t21 -48t9 -80.5v-157q0 -57 10.5 -80t41.5 -23h48v-33h-50q-42 0 -65 25t-23 93v158q0 30 -3 59t-11 51.5t-22 36.5t-36 15v38q22 1 36 15t22 36.5
t11 51.5t3 59v159q0 68 23 93t65 25h50v-33z" />
    <glyph glyph-name="bar" unicode="|" horiz-adv-x="222" 
d="M92 786h38v-1000h-38v1000z" />
    <glyph glyph-name="braceright" unicode="}" horiz-adv-x="333" 
d="M40 -151h48q31 0 41.5 23t10.5 80v157q0 50 9 80.5t21 48t23.5 25.5t16.5 13q-5 3 -16.5 10t-23.5 24t-21 47.5t-9 80.5v157q0 57 -10.5 80t-41.5 23h-48v33h50q42 0 65 -25t23 -93v-159q0 -30 3 -59t11 -51.5t22 -36.5t36 -15v-38q-22 -1 -36 -15t-22 -36.5t-11 -51.5
t-3 -59v-158q0 -68 -23 -93t-65 -25h-50v33z" />
    <glyph glyph-name="asciitilde" unicode="~" horiz-adv-x="600" 
d="M528 284q-10 -15 -22 -30t-26.5 -27.5t-32.5 -20t-40 -7.5q-28 0 -54 10.5t-60 27.5q-9 4 -20.5 9.5t-24 10t-25 7.5t-22.5 3q-22 0 -38.5 -7t-28.5 -18.5t-19.5 -24.5t-12.5 -25l-29 30q23 38 49.5 60.5t72.5 22.5q30 0 53.5 -8.5t57.5 -23.5q21 -10 45.5 -23t56.5 -13
q14 0 28 7t26 18.5t22 24.5t16 25z" />
    <glyph glyph-name="uni00A0" unicode="&#xa0;" horiz-adv-x="278" 
 />
    <glyph glyph-name="Agrave" unicode="&#xc0;" horiz-adv-x="593" 
d="M275 714h48l282 -714h-47l-90 229h-342l-91 -229h-47zM454 267l-153 404h-2l-159 -404h314zM290 780l-134 140h51l120 -140h-37z" />
    <glyph glyph-name="Aacute" unicode="&#xc1;" horiz-adv-x="593" 
d="M275 714h48l282 -714h-47l-90 229h-342l-91 -229h-47zM454 267l-153 404h-2l-159 -404h314zM394 920h51l-134 -140h-37z" />
    <glyph glyph-name="Acircumflex" unicode="&#xc2;" horiz-adv-x="593" 
d="M275 714h48l282 -714h-47l-90 229h-342l-91 -229h-47zM454 267l-153 404h-2l-159 -404h314zM320 920l116 -140h-38l-98 115l-97 -115h-38l115 140h40z" />
    <glyph glyph-name="Atilde" unicode="&#xc3;" horiz-adv-x="593" 
d="M275 714h48l282 -714h-47l-90 229h-342l-91 -229h-47zM454 267l-153 404h-2l-159 -404h314zM155 799q1 16 7 32.5t15.5 29t23.5 20.5t32 8q19 0 37 -9t35 -19.5t33.5 -19.5t31.5 -9q21 0 32 18.5t13 38.5h29q-2 -17 -7 -33t-14 -28.5t-22.5 -20.5t-32.5 -8q-17 0 -34 9
t-34.5 19.5t-34.5 19.5t-34 9q-20 0 -31.5 -17t-15.5 -40h-29z" />
    <glyph glyph-name="Adieresis" unicode="&#xc4;" horiz-adv-x="593" 
d="M275 714h48l282 -714h-47l-90 229h-342l-91 -229h-47zM454 267l-153 404h-2l-159 -404h314zM357 793v103h44v-103h-44zM199 793v103h44v-103h-44z" />
    <glyph glyph-name="Amacron" unicode="&#x100;" horiz-adv-x="593" 
d="M275 714h48l282 -714h-47l-90 229h-342l-91 -229h-47zM454 267l-153 404h-2l-159 -404h314zM179 828v33h242v-33h-242z" />
    <glyph glyph-name="Abreve" unicode="&#x102;" horiz-adv-x="593" 
d="M275 714h48l282 -714h-47l-90 229h-342l-91 -229h-47zM454 267l-153 404h-2l-159 -404h314zM436 910q-3 -24 -14.5 -46t-29 -38.5t-40 -26t-47.5 -9.5q-57 0 -95 31.5t-45 88.5h33q6 -26 18 -43t26.5 -27t30.5 -13.5t31 -3.5q39 0 65.5 24t33.5 63h33z" />
    <glyph glyph-name="Aring" unicode="&#xc5;" horiz-adv-x="593" 
d="M275 714h48l282 -714h-47l-90 229h-342l-91 -229h-47zM454 267l-153 404h-2l-159 -404h314zM201 850q0 42 28.5 70.5t70.5 28.5t70.5 -28.5t28.5 -70.5t-28.5 -70.5t-70.5 -28.5t-70.5 28.5t-28.5 70.5zM228 850q0 -30 21 -51t51 -21t51 21t21 51t-21 51t-51 21t-51 -21
t-21 -51z" />
    <glyph glyph-name="Aringacute" unicode="&#x1fa;" horiz-adv-x="593" 
d="M347 949h51l-95 -94h-37zM382 759q0 -26 -13 -45t-35 -29l271 -685h-47l-90 229h-342l-91 -229h-47l276 687q-20 10 -32 28t-12 44q0 35 23 57.5t58 22.5t58 -22.5t23 -57.5zM301 814q-24 0 -39.5 -15.5t-15.5 -39.5q0 -23 16 -39t39 -16q24 0 39.5 15.5t15.5 39.5
q0 23 -16 39t-39 16zM454 267l-153 406h-2l-159 -406h314z" />
    <glyph glyph-name="Aogonek" unicode="&#x104;" horiz-adv-x="593" 
d="M468 229h-342l-91 -229h-47l287 714h48l282 -714h-22q-25 -22 -41 -39t-25 -31.5t-12.5 -26.5t-3.5 -24q0 -20 12.5 -31t30.5 -11q19 0 32 7.5t26 27.5l23 -8q-25 -60 -86 -60q-37 0 -59.5 16.5t-22.5 51.5q0 12 4 25t15 29t30.5 34.5t51.5 39.5zM454 267l-153 404h-2
l-159 -404h314z" />
    <glyph glyph-name="AE" unicode="&#xc6;" horiz-adv-x="870" 
d="M364 714h490v-38h-379v-286h350v-38h-350v-314h380v-38h-424v254h-268l-132 -254h-40zM431 676h-47l-201 -384h248v384z" />
    <glyph glyph-name="AEacute" unicode="&#x1fc;" horiz-adv-x="870" 
d="M364 714h490v-38h-379v-286h350v-38h-350v-314h380v-38h-424v254h-268l-132 -254h-40zM431 676h-47l-201 -384h248v384zM648 920h51l-134 -140h-37z" />
    <glyph glyph-name="Cacute" unicode="&#x106;" horiz-adv-x="704" 
d="M36 357q0 78 23 146.5t66.5 119t107 79.5t143.5 29q63 0 109 -16.5t77.5 -41t51.5 -53.5t30.5 -54.5t14.5 -44t4 -20.5h-44q-7 45 -29 80.5t-55 60.5t-73.5 38t-85.5 13q-70 0 -125 -27t-93 -72.5t-58 -106.5t-20 -130t20 -130t58 -106.5t93 -72.5t125 -27
q52 0 97.5 21.5t79.5 57t54.5 82t23.5 96.5h44q-6 -64 -31.5 -118t-65 -93.5t-91.5 -61.5t-111 -22q-80 0 -143.5 29t-107 79.5t-66.5 119t-23 146.5zM456 920h51l-134 -140h-37z" />
    <glyph glyph-name="Ccircumflex" unicode="&#x108;" horiz-adv-x="704" 
d="M36 357q0 78 23 146.5t66.5 119t107 79.5t143.5 29q63 0 109 -16.5t77.5 -41t51.5 -53.5t30.5 -54.5t14.5 -44t4 -20.5h-44q-7 45 -29 80.5t-55 60.5t-73.5 38t-85.5 13q-70 0 -125 -27t-93 -72.5t-58 -106.5t-20 -130t20 -130t58 -106.5t93 -72.5t125 -27
q52 0 97.5 21.5t79.5 57t54.5 82t23.5 96.5h44q-6 -64 -31.5 -118t-65 -93.5t-91.5 -61.5t-111 -22q-80 0 -143.5 29t-107 79.5t-66.5 119t-23 146.5zM392 920l116 -140h-38l-98 115l-97 -115h-38l115 140h40z" />
    <glyph glyph-name="Ccaron" unicode="&#x10c;" horiz-adv-x="704" 
d="M36 357q0 78 23 146.5t66.5 119t107 79.5t143.5 29q63 0 109 -16.5t77.5 -41t51.5 -53.5t30.5 -54.5t14.5 -44t4 -20.5h-44q-7 45 -29 80.5t-55 60.5t-73.5 38t-85.5 13q-70 0 -125 -27t-93 -72.5t-58 -106.5t-20 -130t20 -130t58 -106.5t93 -72.5t125 -27
q52 0 97.5 21.5t79.5 57t54.5 82t23.5 96.5h44q-6 -64 -31.5 -118t-65 -93.5t-91.5 -61.5t-111 -22q-80 0 -143.5 29t-107 79.5t-66.5 119t-23 146.5zM352 780l-115 140h38l97 -115l98 115h38l-116 -140h-40z" />
    <glyph glyph-name="Cdotaccent" unicode="&#x10a;" horiz-adv-x="704" 
d="M36 357q0 78 23 146.5t66.5 119t107 79.5t143.5 29q63 0 109 -16.5t77.5 -41t51.5 -53.5t30.5 -54.5t14.5 -44t4 -20.5h-44q-7 45 -29 80.5t-55 60.5t-73.5 38t-85.5 13q-70 0 -125 -27t-93 -72.5t-58 -106.5t-20 -130t20 -130t58 -106.5t93 -72.5t125 -27
q52 0 97.5 21.5t79.5 57t54.5 82t23.5 96.5h44q-6 -64 -31.5 -118t-65 -93.5t-91.5 -61.5t-111 -22q-80 0 -143.5 29t-107 79.5t-66.5 119t-23 146.5zM351 793v103h44v-103h-44z" />
    <glyph glyph-name="Ccedilla" unicode="&#xc7;" horiz-adv-x="704" 
d="M619 501q-7 45 -29 80.5t-55 60.5t-73.5 38t-85.5 13q-70 0 -125 -27t-93 -72.5t-58 -106.5t-20 -130t20 -130t58 -106.5t93 -72.5t125 -27q52 0 97.5 21.5t79.5 57t54.5 82t23.5 96.5h44q-6 -64 -31.5 -118t-65 -93.5t-91.5 -61.5t-111 -22h-1l-33 -39l1 -1q17 7 38 7
q31 0 52.5 -16.5t21.5 -50.5q0 -40 -28 -59.5t-70 -19.5q-29 0 -51 7t-41 18l11 24q17 -9 36.5 -15.5t43.5 -6.5q27 0 44 13t17 37q0 19 -14.5 31t-37.5 12q-14 0 -26 -3.5t-23 -8.5l-16 13l44 59q-73 6 -130.5 37t-97 81t-60 115t-20.5 140q0 78 23 146.5t66.5 119
t107 79.5t143.5 29q63 0 109 -16.5t77.5 -41t51.5 -53.5t30.5 -54.5t14.5 -44t4 -20.5h-44z" />
    <glyph glyph-name="Dcaron" unicode="&#x10e;" horiz-adv-x="667" 
d="M63 714h234q96 0 159.5 -30t101.5 -80t53.5 -114t15.5 -132q0 -76 -19.5 -141.5t-60.5 -113.5t-103.5 -75.5t-148.5 -27.5h-232v714zM299 38q50 0 100.5 15.5t91.5 52t66.5 98t25.5 154.5q0 73 -14.5 125t-38 87.5t-54 56t-63 31.5t-65 14.5t-58.5 3.5h-183v-638h192z
M270 780l-115 140h38l97 -115l98 115h38l-116 -140h-40z" />
    <glyph glyph-name="Dcroat" unicode="&#x110;" horiz-adv-x="667" 
d="M63 355h-76v33h76v326h234q96 0 159.5 -30t101.5 -80t53.5 -114t15.5 -132q0 -76 -19.5 -141.5t-60.5 -113.5t-103.5 -75.5t-148.5 -27.5h-232v355zM107 388h246v-33h-246v-317h192q50 0 100.5 15.5t91.5 52t66.5 98t25.5 154.5q0 73 -14.5 125t-38 87.5t-54 56t-63 31.5
t-65 14.5t-58.5 3.5h-183v-288z" />
    <glyph glyph-name="Eth" unicode="&#xd0;" horiz-adv-x="667" 
d="M63 355h-76v33h76v326h234q96 0 159.5 -30t101.5 -80t53.5 -114t15.5 -132q0 -76 -19.5 -141.5t-60.5 -113.5t-103.5 -75.5t-148.5 -27.5h-232v355zM107 388h246v-33h-246v-317h192q50 0 100.5 15.5t91.5 52t66.5 98t25.5 154.5q0 73 -14.5 125t-38 87.5t-54 56t-63 31.5
t-65 14.5t-58.5 3.5h-183v-288z" />
    <glyph glyph-name="Egrave" unicode="&#xc8;" horiz-adv-x="560" 
d="M63 714h480v-38h-436v-286h410v-38h-410v-314h441v-38h-485v714zM298 780l-134 140h51l120 -140h-37z" />
    <glyph glyph-name="Eacute" unicode="&#xc9;" horiz-adv-x="560" 
d="M63 714h480v-38h-436v-286h410v-38h-410v-314h441v-38h-485v714zM382 920h51l-134 -140h-37z" />
    <glyph glyph-name="Ecircumflex" unicode="&#xca;" horiz-adv-x="560" 
d="M63 714h480v-38h-436v-286h410v-38h-410v-314h441v-38h-485v714zM318 920l116 -140h-38l-98 115l-97 -115h-38l115 140h40z" />
    <glyph glyph-name="Ecaron" unicode="&#x11a;" horiz-adv-x="560" 
d="M63 714h480v-38h-436v-286h410v-38h-410v-314h441v-38h-485v714zM278 780l-115 140h38l97 -115l98 115h38l-116 -140h-40z" />
    <glyph glyph-name="Edieresis" unicode="&#xcb;" horiz-adv-x="560" 
d="M63 714h480v-38h-436v-286h410v-38h-410v-314h441v-38h-485v714zM355 793v103h44v-103h-44zM197 793v103h44v-103h-44z" />
    <glyph glyph-name="Emacron" unicode="&#x112;" horiz-adv-x="560" 
d="M63 714h480v-38h-436v-286h410v-38h-410v-314h441v-38h-485v714zM177 828v33h242v-33h-242z" />
    <glyph glyph-name="Ebreve" unicode="&#x114;" horiz-adv-x="560" 
d="M63 714h480v-38h-436v-286h410v-38h-410v-314h441v-38h-485v714zM434 910q-3 -24 -14.5 -46t-29 -38.5t-40 -26t-47.5 -9.5q-57 0 -95 31.5t-45 88.5h33q6 -26 18 -43t26.5 -27t30.5 -13.5t31 -3.5q39 0 65.5 24t33.5 63h33z" />
    <glyph glyph-name="Edotaccent" unicode="&#x116;" horiz-adv-x="560" 
d="M63 714h480v-38h-436v-286h410v-38h-410v-314h441v-38h-485v714zM277 793v103h44v-103h-44z" />
    <glyph glyph-name="Eogonek" unicode="&#x118;" horiz-adv-x="560" 
d="M63 0v714h480v-38h-436v-286h410v-38h-410v-314h441v-38h-46q-25 -22 -41 -39t-25 -31.5t-12.5 -26.5t-3.5 -24q0 -20 12.5 -31t30.5 -11q19 0 32 7.5t26 27.5l23 -8q-25 -60 -86 -60q-37 0 -59.5 16.5t-22.5 51.5q0 12 4 25t15 29t31 34.5t52 39.5h-415z" />
    <glyph glyph-name="Gcircumflex" unicode="&#x11c;" horiz-adv-x="741" 
d="M37 353q0 76 22.5 144.5t65.5 120.5t105.5 82.5t143.5 30.5q55 0 105 -16t89.5 -47t66.5 -75t36 -100h-42q-25 94 -90 147t-164 53q-72 0 -127 -28t-92 -75t-56 -108.5t-19 -128.5q0 -68 18.5 -128.5t55 -105.5t91.5 -71.5t129 -26.5q64 0 115 21t86.5 59t53.5 91.5
t15 119.5h-263v38h301v-350h-38v152h-2q-13 -39 -39 -70.5t-61.5 -53t-79 -33.5t-90.5 -12q-81 0 -143.5 29t-105.5 79t-65 117.5t-22 144.5zM392 920l116 -140h-38l-98 115l-97 -115h-38l115 140h40z" />
    <glyph glyph-name="Gbreve" unicode="&#x11e;" horiz-adv-x="741" 
d="M37 353q0 76 22.5 144.5t65.5 120.5t105.5 82.5t143.5 30.5q55 0 105 -16t89.5 -47t66.5 -75t36 -100h-42q-25 94 -90 147t-164 53q-72 0 -127 -28t-92 -75t-56 -108.5t-19 -128.5q0 -68 18.5 -128.5t55 -105.5t91.5 -71.5t129 -26.5q64 0 115 21t86.5 59t53.5 91.5
t15 119.5h-263v38h301v-350h-38v152h-2q-13 -39 -39 -70.5t-61.5 -53t-79 -33.5t-90.5 -12q-81 0 -143.5 29t-105.5 79t-65 117.5t-22 144.5zM508 910q-3 -24 -14.5 -46t-29 -38.5t-40 -26t-47.5 -9.5q-57 0 -95 31.5t-45 88.5h33q6 -26 18 -43t26.5 -27t30.5 -13.5t31 -3.5
q39 0 65.5 24t33.5 63h33z" />
    <glyph glyph-name="Gdotaccent" unicode="&#x120;" horiz-adv-x="741" 
d="M37 353q0 76 22.5 144.5t65.5 120.5t105.5 82.5t143.5 30.5q55 0 105 -16t89.5 -47t66.5 -75t36 -100h-42q-25 94 -90 147t-164 53q-72 0 -127 -28t-92 -75t-56 -108.5t-19 -128.5q0 -68 18.5 -128.5t55 -105.5t91.5 -71.5t129 -26.5q64 0 115 21t86.5 59t53.5 91.5
t15 119.5h-263v38h301v-350h-38v152h-2q-13 -39 -39 -70.5t-61.5 -53t-79 -33.5t-90.5 -12q-81 0 -143.5 29t-105.5 79t-65 117.5t-22 144.5zM351 793v103h44v-103h-44z" />
    <glyph glyph-name="Gcommaaccent" unicode="&#x122;" horiz-adv-x="741" 
d="M37 353q0 76 22.5 144.5t65.5 120.5t105.5 82.5t143.5 30.5q55 0 105 -16t89.5 -47t66.5 -75t36 -100h-42q-25 94 -90 147t-164 53q-72 0 -127 -28t-92 -75t-56 -108.5t-19 -128.5q0 -68 18.5 -128.5t55 -105.5t91.5 -71.5t129 -26.5q64 0 115 21t86.5 59t53.5 91.5
t15 119.5h-263v38h301v-350h-38v152h-2q-13 -39 -39 -70.5t-61.5 -53t-79 -33.5t-90.5 -12q-81 0 -143.5 29t-105.5 79t-65 117.5t-22 144.5zM335 -176q13 3 21 10.5t10 22.5h-25v93h57v-80q0 -61 -63 -66v20z" />
    <glyph glyph-name="Hcircumflex" unicode="&#x124;" horiz-adv-x="670" 
d="M63 714h44v-324h456v324h44v-714h-44v352h-456v-352h-44v714zM355 920l116 -140h-38l-98 115l-97 -115h-38l115 140h40z" />
    <glyph glyph-name="Hbar" unicode="&#x126;" horiz-adv-x="670" 
d="M107 554h456v160h44v-714h-44v333h-456v-333h-44v714h44v-160zM107 371h456v150h-456v-150z" />
    <glyph glyph-name="Igrave" unicode="&#xcc;" horiz-adv-x="170" 
d="M63 714h44v-714h-44v714zM75 780l-134 140h51l120 -140h-37z" />
    <glyph glyph-name="Iacute" unicode="&#xcd;" horiz-adv-x="170" 
d="M63 714h44v-714h-44v714zM179 920h51l-134 -140h-37z" />
    <glyph glyph-name="Ibreve" unicode="&#x12c;" horiz-adv-x="170" 
d="M63 714h44v-714h-44v714zM221 910q-3 -24 -14.5 -46t-29 -38.5t-40 -26t-47.5 -9.5q-57 0 -95 31.5t-45 88.5h33q6 -26 18 -43t26.5 -27t30.5 -13.5t31 -3.5q39 0 65.5 24t33.5 63h33z" />
    <glyph glyph-name="Icircumflex" unicode="&#xce;" horiz-adv-x="170" 
d="M63 714h44v-714h-44v714zM105 920l116 -140h-38l-98 115l-97 -115h-38l115 140h40z" />
    <glyph glyph-name="Itilde" unicode="&#x128;" horiz-adv-x="170" 
d="M63 714h44v-714h-44v714zM-60 799q1 16 7 32.5t15.5 29t23.5 20.5t32 8q19 0 37 -9t35 -19.5t33.5 -19.5t31.5 -9q21 0 32 18.5t13 38.5h29q-2 -17 -7 -33t-14 -28.5t-22.5 -20.5t-32.5 -8q-17 0 -34 9t-34.5 19.5t-34.5 19.5t-34 9q-20 0 -31.5 -17t-15.5 -40h-29z" />
    <glyph glyph-name="Idieresis" unicode="&#xcf;" horiz-adv-x="170" 
d="M63 714h44v-714h-44v714zM142 793v103h44v-103h-44zM-16 793v103h44v-103h-44z" />
    <glyph glyph-name="Imacron" unicode="&#x12a;" horiz-adv-x="170" 
d="M63 714h44v-714h-44v714zM-36 828v33h242v-33h-242z" />
    <glyph glyph-name="Idotaccent" unicode="&#x130;" horiz-adv-x="170" 
d="M63 714h44v-714h-44v714zM63 793v103h44v-103h-44z" />
    <glyph glyph-name="Iogonek" unicode="&#x12e;" horiz-adv-x="170" 
d="M63 714h44v-714q-21 -22 -35 -39t-22 -31.5t-11.5 -26.5t-3.5 -24q0 -20 11 -31t27 -11q15 0 27.5 7.5t25.5 27.5l23 -8q-13 -31 -33.5 -45.5t-46.5 -14.5q-32 0 -54 16.5t-22 51.5q0 12 4 25t14 29t27.5 34.5t44.5 39.5h-20v714z" />
    <glyph glyph-name="Jcircumflex" unicode="&#x134;" horiz-adv-x="481" 
d="M217 21q61 0 93.5 20t46.5 51t15.5 69.5t1.5 75.5v477h44v-492q0 -21 -0.5 -47t-6 -52.5t-17 -51.5t-33.5 -44.5t-55.5 -31.5t-83.5 -12q-72 0 -113 23t-60.5 59t-24 79t-4.5 83h44q-3 -40 1 -77t20 -65.5t47.5 -46t84.5 -17.5zM414 920l116 -140h-38l-98 115l-97 -115
h-38l115 140h40z" />
    <glyph glyph-name="Kcommaaccent" unicode="&#x136;" horiz-adv-x="613" 
d="M63 714h44v-411l449 411h57l-326 -297l346 -417h-55l-323 387l-148 -135v-252h-44v714zM295 -176q13 3 21 10.5t10 22.5h-25v93h57v-80q0 -61 -63 -66v20z" />
    <glyph glyph-name="Lacute" unicode="&#x139;" horiz-adv-x="500" 
d="M63 714h44v-676h405v-38h-449v714zM189 920h51l-134 -140h-37z" />
    <glyph glyph-name="Lcaron" unicode="&#x13d;" horiz-adv-x="500" 
d="M63 714h44v-676h405v-38h-449v714zM279 714h51l-87 -140h-29z" />
    <glyph glyph-name="Lcommaaccent" unicode="&#x13b;" horiz-adv-x="500" 
d="M63 714h44v-676h405v-38h-449v714zM246 -176q13 3 21 10.5t10 22.5h-25v93h57v-80q0 -61 -63 -66v20z" />
    <glyph glyph-name="Lslash" unicode="&#x141;" horiz-adv-x="500" 
d="M107 714v-383l235 143v-36l-235 -142v-258h405v-38h-449v269l-85 -53v38l85 51v409h44z" />
    <glyph glyph-name="Ldot" unicode="&#x13f;" horiz-adv-x="500" 
d="M63 714h44v-676h405v-38h-449v714zM271 329v103h44v-103h-44z" />
    <glyph glyph-name="Nacute" unicode="&#x143;" horiz-adv-x="678" 
d="M63 714h55l451 -655h2v655h44v-714h-52l-454 660h-2v-660h-44v714zM428 920h51l-134 -140h-37z" />
    <glyph glyph-name="Ncaron" unicode="&#x147;" horiz-adv-x="678" 
d="M63 714h55l451 -655h2v655h44v-714h-52l-454 660h-2v-660h-44v714zM324 780l-115 140h38l97 -115l98 115h38l-116 -140h-40z" />
    <glyph glyph-name="Ntilde" unicode="&#xd1;" horiz-adv-x="678" 
d="M63 714h55l451 -655h2v655h44v-714h-52l-454 660h-2v-660h-44v714zM199 799q1 16 7 32.5t15.5 29t23.5 20.5t32 8q19 0 37 -9t35 -19.5t33.5 -19.5t31.5 -9q21 0 32 18.5t13 38.5h29q-2 -17 -7 -33t-14 -28.5t-22.5 -20.5t-32.5 -8q-17 0 -34 9t-34.5 19.5t-34.5 19.5
t-34 9q-20 0 -31.5 -17t-15.5 -40h-29z" />
    <glyph glyph-name="Ncommaaccent" unicode="&#x145;" horiz-adv-x="678" 
d="M63 714h55l451 -655h2v655h44v-714h-52l-454 660h-2v-660h-44v714zM302 -176q13 3 21 10.5t10 22.5h-25v93h57v-80q0 -61 -63 -66v20z" />
    <glyph glyph-name="Ograve" unicode="&#xd2;" horiz-adv-x="741" 
d="M710 357q0 -78 -23 -146.5t-66.5 -119t-106.5 -79.5t-143 -29t-143.5 29t-107 79.5t-66.5 119t-23 146.5t23 146.5t66.5 119t107 79.5t143.5 29t143 -29t106.5 -79.5t66.5 -119t23 -146.5zM75 357q0 -69 20 -130t58 -106.5t93 -72.5t125 -27t124.5 27t92.5 72.5t58 106.5
t20 130t-20 130t-58 106.5t-92.5 72.5t-124.5 27t-125 -27t-93 -72.5t-58 -106.5t-20 -130zM371 780l-134 140h51l120 -140h-37z" />
    <glyph glyph-name="Oacute" unicode="&#xd3;" horiz-adv-x="741" 
d="M710 357q0 -78 -23 -146.5t-66.5 -119t-106.5 -79.5t-143 -29t-143.5 29t-107 79.5t-66.5 119t-23 146.5t23 146.5t66.5 119t107 79.5t143.5 29t143 -29t106.5 -79.5t66.5 -119t23 -146.5zM75 357q0 -69 20 -130t58 -106.5t93 -72.5t125 -27t124.5 27t92.5 72.5t58 106.5
t20 130t-20 130t-58 106.5t-92.5 72.5t-124.5 27t-125 -27t-93 -72.5t-58 -106.5t-20 -130zM455 920h51l-134 -140h-37z" />
    <glyph glyph-name="Ocircumflex" unicode="&#xd4;" horiz-adv-x="741" 
d="M710 357q0 -78 -23 -146.5t-66.5 -119t-106.5 -79.5t-143 -29t-143.5 29t-107 79.5t-66.5 119t-23 146.5t23 146.5t66.5 119t107 79.5t143.5 29t143 -29t106.5 -79.5t66.5 -119t23 -146.5zM75 357q0 -69 20 -130t58 -106.5t93 -72.5t125 -27t124.5 27t92.5 72.5t58 106.5
t20 130t-20 130t-58 106.5t-92.5 72.5t-124.5 27t-125 -27t-93 -72.5t-58 -106.5t-20 -130zM391 920l116 -140h-38l-98 115l-97 -115h-38l115 140h40z" />
    <glyph glyph-name="Otilde" unicode="&#xd5;" horiz-adv-x="741" 
d="M710 357q0 -78 -23 -146.5t-66.5 -119t-106.5 -79.5t-143 -29t-143.5 29t-107 79.5t-66.5 119t-23 146.5t23 146.5t66.5 119t107 79.5t143.5 29t143 -29t106.5 -79.5t66.5 -119t23 -146.5zM75 357q0 -69 20 -130t58 -106.5t93 -72.5t125 -27t124.5 27t92.5 72.5t58 106.5
t20 130t-20 130t-58 106.5t-92.5 72.5t-124.5 27t-125 -27t-93 -72.5t-58 -106.5t-20 -130zM226 799q1 16 7 32.5t15.5 29t23.5 20.5t32 8q19 0 37 -9t35 -19.5t33.5 -19.5t31.5 -9q21 0 32 18.5t13 38.5h29q-2 -17 -7 -33t-14 -28.5t-22.5 -20.5t-32.5 -8q-17 0 -34 9
t-34.5 19.5t-34.5 19.5t-34 9q-20 0 -31.5 -17t-15.5 -40h-29z" />
    <glyph glyph-name="Odieresis" unicode="&#xd6;" horiz-adv-x="741" 
d="M710 357q0 -78 -23 -146.5t-66.5 -119t-106.5 -79.5t-143 -29t-143.5 29t-107 79.5t-66.5 119t-23 146.5t23 146.5t66.5 119t107 79.5t143.5 29t143 -29t106.5 -79.5t66.5 -119t23 -146.5zM75 357q0 -69 20 -130t58 -106.5t93 -72.5t125 -27t124.5 27t92.5 72.5t58 106.5
t20 130t-20 130t-58 106.5t-92.5 72.5t-124.5 27t-125 -27t-93 -72.5t-58 -106.5t-20 -130zM428 793v103h44v-103h-44zM270 793v103h44v-103h-44z" />
    <glyph glyph-name="Omacron" unicode="&#x14c;" horiz-adv-x="741" 
d="M710 357q0 -78 -23 -146.5t-66.5 -119t-106.5 -79.5t-143 -29t-143.5 29t-107 79.5t-66.5 119t-23 146.5t23 146.5t66.5 119t107 79.5t143.5 29t143 -29t106.5 -79.5t66.5 -119t23 -146.5zM75 357q0 -69 20 -130t58 -106.5t93 -72.5t125 -27t124.5 27t92.5 72.5t58 106.5
t20 130t-20 130t-58 106.5t-92.5 72.5t-124.5 27t-125 -27t-93 -72.5t-58 -106.5t-20 -130zM250 828v33h242v-33h-242z" />
    <glyph glyph-name="Obreve" unicode="&#x14e;" horiz-adv-x="741" 
d="M710 357q0 -78 -23 -146.5t-66.5 -119t-106.5 -79.5t-143 -29t-143.5 29t-107 79.5t-66.5 119t-23 146.5t23 146.5t66.5 119t107 79.5t143.5 29t143 -29t106.5 -79.5t66.5 -119t23 -146.5zM75 357q0 -69 20 -130t58 -106.5t93 -72.5t125 -27t124.5 27t92.5 72.5t58 106.5
t20 130t-20 130t-58 106.5t-92.5 72.5t-124.5 27t-125 -27t-93 -72.5t-58 -106.5t-20 -130zM507 910q-3 -24 -14.5 -46t-29 -38.5t-40 -26t-47.5 -9.5q-57 0 -95 31.5t-45 88.5h33q6 -26 18 -43t26.5 -27t30.5 -13.5t31 -3.5q39 0 65.5 24t33.5 63h33z" />
    <glyph glyph-name="Ohungarumlaut" unicode="&#x150;" horiz-adv-x="741" 
d="M710 357q0 -78 -23 -146.5t-66.5 -119t-106.5 -79.5t-143 -29t-143.5 29t-107 79.5t-66.5 119t-23 146.5t23 146.5t66.5 119t107 79.5t143.5 29t143 -29t106.5 -79.5t66.5 -119t23 -146.5zM75 357q0 -69 20 -130t58 -106.5t93 -72.5t125 -27t124.5 27t92.5 72.5t58 106.5
t20 130t-20 130t-58 106.5t-92.5 72.5t-124.5 27t-125 -27t-93 -72.5t-58 -106.5t-20 -130zM423 780l120 140h51l-134 -140h-37zM265 780l120 140h51l-134 -140h-37z" />
    <glyph glyph-name="Oslash" unicode="&#xd8;" horiz-adv-x="741" 
d="M113 102q-40 51 -61 115.5t-21 139.5q0 78 23 146.5t66.5 119t107 79.5t143.5 29q72 0 130.5 -24t101.5 -67l68 74l26 -24l-70 -76q42 -51 62.5 -116t20.5 -141q0 -78 -23 -146.5t-66.5 -119t-106.5 -79.5t-143 -29q-75 0 -133.5 24t-101.5 69l-76 -84l-26 24zM575 609
q-38 39 -89 61.5t-115 22.5q-70 0 -125 -27t-93 -72.5t-58 -106.5t-20 -130q0 -64 17 -121t51 -102zM165 108q38 -42 89 -64.5t117 -22.5q70 0 124.5 27t92.5 72.5t58 106.5t20 130q0 66 -17.5 123t-50.5 102z" />
    <glyph glyph-name="Oslashacute" unicode="&#x1fe;" horiz-adv-x="741" 
d="M113 102q-40 51 -61 115.5t-21 139.5q0 78 23 146.5t66.5 119t107 79.5t143.5 29q72 0 130.5 -24t101.5 -67l68 74l26 -24l-70 -76q42 -51 62.5 -116t20.5 -141q0 -78 -23 -146.5t-66.5 -119t-106.5 -79.5t-143 -29q-75 0 -133.5 24t-101.5 69l-76 -84l-26 24zM575 609
q-38 39 -89 61.5t-115 22.5q-70 0 -125 -27t-93 -72.5t-58 -106.5t-20 -130q0 -64 17 -121t51 -102zM165 108q38 -42 89 -64.5t117 -22.5q70 0 124.5 27t92.5 72.5t58 106.5t20 130q0 66 -17.5 123t-50.5 102zM455 920h51l-134 -140h-37z" />
    <glyph glyph-name="OE" unicode="&#x152;" horiz-adv-x="1056" 
d="M617 390h378v-38h-378v-314h424v-38h-468v66h-2q-25 -32 -78.5 -57.5t-132.5 -25.5q-80 0 -141 28.5t-103 79t-63.5 118t-21.5 145.5q0 76 22 144.5t65 120t106 82t144 30.5q56 0 111.5 -21t93.5 -62v66h466v-38h-422v-286zM573 578q0 10 -6 20.5t-14.5 20t-18.5 17.5
t-18 13q-65 44 -144 44q-73 0 -128.5 -27.5t-93 -74t-56.5 -108t-19 -129.5t17.5 -128.5t53 -106t89.5 -72t128 -26.5q32 0 64.5 5.5t61.5 21.5q10 5 24.5 13.5t27.5 19.5t22.5 23t9.5 23v451z" />
    <glyph glyph-name="Racute" unicode="&#x154;" horiz-adv-x="630" 
d="M63 714h298q47 0 88 -9.5t72 -31t48.5 -56.5t17.5 -87q0 -72 -40.5 -121.5t-112.5 -61.5v-2q49 -6 77.5 -26t42.5 -49t18 -64t4 -70v-41t2 -37.5t6.5 -32.5t12.5 -25h-49q-14 25 -15.5 58.5t-1.5 69.5t-3 71.5t-19 63.5t-50.5 45t-97.5 17h-254v-325h-44v714zM361 363
q39 0 72.5 9.5t57.5 29.5t38 51t14 74q0 40 -15 68.5t-40 46.5t-58 26t-69 8h-254v-313h254zM381 920h51l-134 -140h-37z" />
    <glyph glyph-name="Rcaron" unicode="&#x158;" horiz-adv-x="630" 
d="M63 714h298q47 0 88 -9.5t72 -31t48.5 -56.5t17.5 -87q0 -72 -40.5 -121.5t-112.5 -61.5v-2q49 -6 77.5 -26t42.5 -49t18 -64t4 -70v-41t2 -37.5t6.5 -32.5t12.5 -25h-49q-14 25 -15.5 58.5t-1.5 69.5t-3 71.5t-19 63.5t-50.5 45t-97.5 17h-254v-325h-44v714zM361 363
q39 0 72.5 9.5t57.5 29.5t38 51t14 74q0 40 -15 68.5t-40 46.5t-58 26t-69 8h-254v-313h254zM277 780l-115 140h38l97 -115l98 115h38l-116 -140h-40z" />
    <glyph glyph-name="Rcommaaccent" unicode="&#x156;" horiz-adv-x="630" 
d="M63 714h298q47 0 88 -9.5t72 -31t48.5 -56.5t17.5 -87q0 -72 -40.5 -121.5t-112.5 -61.5v-2q49 -6 77.5 -26t42.5 -49t18 -64t4 -70v-41t2 -37.5t6.5 -32.5t12.5 -25h-49q-14 25 -15.5 58.5t-1.5 69.5t-3 71.5t-19 63.5t-50.5 45t-97.5 17h-254v-325h-44v714zM361 363
q39 0 72.5 9.5t57.5 29.5t38 51t14 74q0 40 -15 68.5t-40 46.5t-58 26t-69 8h-254v-313h254zM286 -176q13 3 21 10.5t10 22.5h-25v93h57v-80q0 -61 -63 -66v20z" />
    <glyph glyph-name="Sacute" unicode="&#x15a;" horiz-adv-x="630" 
d="M529 510q-2 46 -19.5 80t-47.5 57t-71.5 34.5t-90.5 11.5q-30 0 -64.5 -7t-64 -24.5t-48.5 -47t-19 -73.5q0 -43 21 -70t55 -43.5t78 -26.5t89 -19q46 -9 89.5 -21.5t78 -34t55.5 -56t21 -86.5q0 -56 -24 -94t-60.5 -62t-81 -34.5t-85.5 -10.5q-63 0 -118 13.5t-96 44
t-64.5 78.5t-22.5 117h44q-3 -59 17 -99.5t55.5 -66.5t83.5 -37.5t101 -11.5q32 0 68.5 8t67 27t51 50t20.5 78q0 45 -21 73.5t-55.5 46t-78 28t-89.5 19.5q-45 9 -89 21t-78 32.5t-55 53t-21 83.5t21.5 87.5t56 59t77.5 33t85 10.5q56 0 104.5 -12.5t85 -39t58.5 -68.5
t25 -101h-44zM403 920h51l-134 -140h-37z" />
    <glyph glyph-name="Scircumflex" unicode="&#x15c;" horiz-adv-x="630" 
d="M529 510q-2 46 -19.5 80t-47.5 57t-71.5 34.5t-90.5 11.5q-30 0 -64.5 -7t-64 -24.5t-48.5 -47t-19 -73.5q0 -43 21 -70t55 -43.5t78 -26.5t89 -19q46 -9 89.5 -21.5t78 -34t55.5 -56t21 -86.5q0 -56 -24 -94t-60.5 -62t-81 -34.5t-85.5 -10.5q-63 0 -118 13.5t-96 44
t-64.5 78.5t-22.5 117h44q-3 -59 17 -99.5t55.5 -66.5t83.5 -37.5t101 -11.5q32 0 68.5 8t67 27t51 50t20.5 78q0 45 -21 73.5t-55.5 46t-78 28t-89.5 19.5q-45 9 -89 21t-78 32.5t-55 53t-21 83.5t21.5 87.5t56 59t77.5 33t85 10.5q56 0 104.5 -12.5t85 -39t58.5 -68.5
t25 -101h-44zM339 920l116 -140h-38l-98 115l-97 -115h-38l115 140h40z" />
    <glyph glyph-name="Scaron" unicode="&#x160;" horiz-adv-x="630" 
d="M529 510q-2 46 -19.5 80t-47.5 57t-71.5 34.5t-90.5 11.5q-30 0 -64.5 -7t-64 -24.5t-48.5 -47t-19 -73.5q0 -43 21 -70t55 -43.5t78 -26.5t89 -19q46 -9 89.5 -21.5t78 -34t55.5 -56t21 -86.5q0 -56 -24 -94t-60.5 -62t-81 -34.5t-85.5 -10.5q-63 0 -118 13.5t-96 44
t-64.5 78.5t-22.5 117h44q-3 -59 17 -99.5t55.5 -66.5t83.5 -37.5t101 -11.5q32 0 68.5 8t67 27t51 50t20.5 78q0 45 -21 73.5t-55.5 46t-78 28t-89.5 19.5q-45 9 -89 21t-78 32.5t-55 53t-21 83.5t21.5 87.5t56 59t77.5 33t85 10.5q56 0 104.5 -12.5t85 -39t58.5 -68.5
t25 -101h-44zM299 780l-115 140h38l97 -115l98 115h38l-116 -140h-40z" />
    <glyph glyph-name="Scedilla" unicode="&#x15e;" horiz-adv-x="630" 
d="M529 510q-2 46 -19.5 80t-47.5 57t-71.5 34.5t-90.5 11.5q-30 0 -64.5 -7t-64 -24.5t-48.5 -47t-19 -73.5q0 -43 21 -70t55 -43.5t78 -26.5t89 -19q46 -9 89.5 -21.5t78 -34t55.5 -56t21 -86.5q0 -56 -24 -94t-60.5 -62t-81 -34.5t-85.5 -10.5h-11t-11 1l-33 -40l1 -1
q17 7 38 7q31 0 52.5 -16.5t21.5 -50.5q0 -40 -28 -59.5t-70 -19.5q-29 0 -51 7t-41 18l11 24q17 -9 36.5 -15.5t43.5 -6.5q27 0 44 13t17 37q0 19 -14.5 31t-37.5 12q-14 0 -26 -3.5t-23 -8.5l-16 13l45 61q-54 5 -100 21.5t-79.5 46.5t-52 75t-17.5 107h44
q-3 -59 17 -99.5t55.5 -66.5t83.5 -37.5t101 -11.5q32 0 68.5 8t67 27t51 50t20.5 78q0 45 -21 73.5t-55.5 46t-78 28t-89.5 19.5q-45 9 -89 21t-78 32.5t-55 53t-21 83.5t21.5 87.5t56 59t77.5 33t85 10.5q56 0 104.5 -12.5t85 -39t58.5 -68.5t25 -101h-44z" />
    <glyph glyph-name="Scommaaccent" unicode="&#x218;" horiz-adv-x="630" 
d="M529 510q-2 46 -19.5 80t-47.5 57t-71.5 34.5t-90.5 11.5q-30 0 -64.5 -7t-64 -24.5t-48.5 -47t-19 -73.5q0 -43 21 -70t55 -43.5t78 -26.5t89 -19q46 -9 89.5 -21.5t78 -34t55.5 -56t21 -86.5q0 -56 -24 -94t-60.5 -62t-81 -34.5t-85.5 -10.5q-63 0 -118 13.5t-96 44
t-64.5 78.5t-22.5 117h44q-3 -59 17 -99.5t55.5 -66.5t83.5 -37.5t101 -11.5q32 0 68.5 8t67 27t51 50t20.5 78q0 45 -21 73.5t-55.5 46t-78 28t-89.5 19.5q-45 9 -89 21t-78 32.5t-55 53t-21 83.5t21.5 87.5t56 59t77.5 33t85 10.5q56 0 104.5 -12.5t85 -39t58.5 -68.5
t25 -101h-44zM286 -176q13 3 21 10.5t10 22.5h-25v93h57v-80q0 -61 -63 -66v20z" />
    <glyph glyph-name="Tcaron" unicode="&#x164;" 
d="M-14 676v38h547v-38h-252v-676h-44v676h-251zM240 780l-115 140h38l97 -115l98 115h38l-116 -140h-40z" />
    <glyph glyph-name="Tcommaaccent" unicode="&#x162;" 
d="M-14 676v38h547v-38h-252v-676h-44v676h-251zM276 0l-48 -56l1 -1q17 7 38 7q31 0 52.5 -16.5t21.5 -50.5q0 -40 -28 -59.5t-70 -19.5q-29 0 -51 7t-41 18l11 24q17 -9 36.5 -15.5t43.5 -6.5q27 0 44 13t17 37q0 19 -14.5 31t-37.5 12q-14 0 -26 -3.5t-23 -8.5l-16 13
l56 75h34z" />
    <glyph glyph-name="uni021A" unicode="&#x21a;" 
d="M-14 676v38h547v-38h-252v-676h-44v676h-251zM224 -176q13 3 21 10.5t10 22.5h-25v93h57v-80q0 -61 -63 -66v20z" />
    <glyph glyph-name="Tbar" unicode="&#x166;" 
d="M-14 676v38h547v-38h-252v-186h169v-33h-169v-457h-44v457h-169v33h169v186h-251z" />
    <glyph glyph-name="Thorn" unicode="&#xde;" horiz-adv-x="593" 
d="M63 714h44v-120h260q30 0 66.5 -7t68 -28.5t52.5 -60.5t21 -103q0 -96 -58 -146.5t-166 -50.5h-244v-198h-44v714zM107 236h251q48 0 81.5 14.5t53.5 37.5t29 51.5t9 56.5q0 20 -6 47.5t-24 52.5t-50.5 42.5t-86.5 17.5h-257v-320z" />
    <glyph glyph-name="Ugrave" unicode="&#xd9;" horiz-adv-x="672" 
d="M107 714v-428q0 -21 2 -49t10 -57.5t22.5 -58t39.5 -51t61.5 -36t88.5 -13.5q66 0 110.5 18.5t72 53t39.5 83.5t12 110v428h44v-428q0 -64 -13.5 -119t-45.5 -96t-85.5 -64.5t-133.5 -23.5q-63 0 -108 16t-74.5 41.5t-46.5 58.5t-26 66.5t-11 65t-2 55.5v428h44zM336 780
l-134 140h51l120 -140h-37z" />
    <glyph glyph-name="Uacute" unicode="&#xda;" horiz-adv-x="672" 
d="M107 714v-428q0 -21 2 -49t10 -57.5t22.5 -58t39.5 -51t61.5 -36t88.5 -13.5q66 0 110.5 18.5t72 53t39.5 83.5t12 110v428h44v-428q0 -64 -13.5 -119t-45.5 -96t-85.5 -64.5t-133.5 -23.5q-63 0 -108 16t-74.5 41.5t-46.5 58.5t-26 66.5t-11 65t-2 55.5v428h44zM420 920
h51l-134 -140h-37z" />
    <glyph glyph-name="Ucircumflex" unicode="&#xdb;" horiz-adv-x="672" 
d="M107 714v-428q0 -21 2 -49t10 -57.5t22.5 -58t39.5 -51t61.5 -36t88.5 -13.5q66 0 110.5 18.5t72 53t39.5 83.5t12 110v428h44v-428q0 -64 -13.5 -119t-45.5 -96t-85.5 -64.5t-133.5 -23.5q-63 0 -108 16t-74.5 41.5t-46.5 58.5t-26 66.5t-11 65t-2 55.5v428h44zM356 920
l116 -140h-38l-98 115l-97 -115h-38l115 140h40z" />
    <glyph glyph-name="Utilde" unicode="&#x168;" horiz-adv-x="672" 
d="M107 714v-428q0 -21 2 -49t10 -57.5t22.5 -58t39.5 -51t61.5 -36t88.5 -13.5q66 0 110.5 18.5t72 53t39.5 83.5t12 110v428h44v-428q0 -64 -13.5 -119t-45.5 -96t-85.5 -64.5t-133.5 -23.5q-63 0 -108 16t-74.5 41.5t-46.5 58.5t-26 66.5t-11 65t-2 55.5v428h44zM191 799
q1 16 7 32.5t15.5 29t23.5 20.5t32 8q19 0 37 -9t35 -19.5t33.5 -19.5t31.5 -9q21 0 32 18.5t13 38.5h29q-2 -17 -7 -33t-14 -28.5t-22.5 -20.5t-32.5 -8q-17 0 -34 9t-34.5 19.5t-34.5 19.5t-34 9q-20 0 -31.5 -17t-15.5 -40h-29z" />
    <glyph glyph-name="Udieresis" unicode="&#xdc;" horiz-adv-x="672" 
d="M107 714v-428q0 -21 2 -49t10 -57.5t22.5 -58t39.5 -51t61.5 -36t88.5 -13.5q66 0 110.5 18.5t72 53t39.5 83.5t12 110v428h44v-428q0 -64 -13.5 -119t-45.5 -96t-85.5 -64.5t-133.5 -23.5q-63 0 -108 16t-74.5 41.5t-46.5 58.5t-26 66.5t-11 65t-2 55.5v428h44zM393 793
v103h44v-103h-44zM235 793v103h44v-103h-44z" />
    <glyph glyph-name="Umacron" unicode="&#x16a;" horiz-adv-x="672" 
d="M107 714v-428q0 -21 2 -49t10 -57.5t22.5 -58t39.5 -51t61.5 -36t88.5 -13.5q66 0 110.5 18.5t72 53t39.5 83.5t12 110v428h44v-428q0 -64 -13.5 -119t-45.5 -96t-85.5 -64.5t-133.5 -23.5q-63 0 -108 16t-74.5 41.5t-46.5 58.5t-26 66.5t-11 65t-2 55.5v428h44zM215 828
v33h242v-33h-242z" />
    <glyph glyph-name="Ubreve" unicode="&#x16c;" horiz-adv-x="672" 
d="M107 714v-428q0 -21 2 -49t10 -57.5t22.5 -58t39.5 -51t61.5 -36t88.5 -13.5q66 0 110.5 18.5t72 53t39.5 83.5t12 110v428h44v-428q0 -64 -13.5 -119t-45.5 -96t-85.5 -64.5t-133.5 -23.5q-63 0 -108 16t-74.5 41.5t-46.5 58.5t-26 66.5t-11 65t-2 55.5v428h44zM472 910
q-3 -24 -14.5 -46t-29 -38.5t-40 -26t-47.5 -9.5q-57 0 -95 31.5t-45 88.5h33q6 -26 18 -43t26.5 -27t30.5 -13.5t31 -3.5q39 0 65.5 24t33.5 63h33z" />
    <glyph glyph-name="Uring" unicode="&#x16e;" horiz-adv-x="672" 
d="M107 714v-428q0 -21 2 -49t10 -57.5t22.5 -58t39.5 -51t61.5 -36t88.5 -13.5q66 0 110.5 18.5t72 53t39.5 83.5t12 110v428h44v-428q0 -64 -13.5 -119t-45.5 -96t-85.5 -64.5t-133.5 -23.5q-63 0 -108 16t-74.5 41.5t-46.5 58.5t-26 66.5t-11 65t-2 55.5v428h44zM237 850
q0 42 28.5 70.5t70.5 28.5t70.5 -28.5t28.5 -70.5t-28.5 -70.5t-70.5 -28.5t-70.5 28.5t-28.5 70.5zM264 850q0 -30 21 -51t51 -21t51 21t21 51t-21 51t-51 21t-51 -21t-21 -51z" />
    <glyph glyph-name="Uhungarumlaut" unicode="&#x170;" horiz-adv-x="672" 
d="M107 714v-428q0 -21 2 -49t10 -57.5t22.5 -58t39.5 -51t61.5 -36t88.5 -13.5q66 0 110.5 18.5t72 53t39.5 83.5t12 110v428h44v-428q0 -64 -13.5 -119t-45.5 -96t-85.5 -64.5t-133.5 -23.5q-63 0 -108 16t-74.5 41.5t-46.5 58.5t-26 66.5t-11 65t-2 55.5v428h44zM388 780
l120 140h51l-134 -140h-37zM230 780l120 140h51l-134 -140h-37z" />
    <glyph glyph-name="Uogonek" unicode="&#x172;" horiz-adv-x="672" 
d="M107 714v-428q0 -21 2 -49t10 -57.5t22.5 -58t39.5 -51t61.5 -36t88.5 -13.5q66 0 110.5 18.5t72 53t39.5 83.5t12 110v428h44v-428q0 -61 -12 -114t-41 -93.5t-76.5 -65.5t-118.5 -29q-38 -36 -51 -60t-13 -45q0 -20 12.5 -31t30.5 -11q19 0 32 7.5t26 27.5l23 -8
q-25 -60 -86 -60q-37 0 -59.5 16.5t-22.5 51.5q0 21 15 48t63 63q-63 0 -108 16t-74.5 41.5t-46.5 58.5t-26 66.5t-11 65t-2 55.5v428h44z" />
    <glyph glyph-name="Wacute" unicode="&#x1e82;" horiz-adv-x="889" 
d="M-6 714h45l186 -667h2l189 667h55l192 -667h2l183 667h47l-205 -714h-50l-196 676h-2l-193 -676h-49zM527 920h51l-134 -140h-37z" />
    <glyph glyph-name="Wcircumflex" unicode="&#x174;" horiz-adv-x="889" 
d="M-6 714h45l186 -667h2l189 667h55l192 -667h2l183 667h47l-205 -714h-50l-196 676h-2l-193 -676h-49zM463 920l116 -140h-38l-98 115l-97 -115h-38l115 140h40z" />
    <glyph glyph-name="Wdieresis" unicode="&#x1e84;" horiz-adv-x="889" 
d="M-6 714h45l186 -667h2l189 667h55l192 -667h2l183 667h47l-205 -714h-50l-196 676h-2l-193 -676h-49zM500 793v103h44v-103h-44zM342 793v103h44v-103h-44z" />
    <glyph glyph-name="Wgrave" unicode="&#x1e80;" horiz-adv-x="889" 
d="M-6 714h45l186 -667h2l189 667h55l192 -667h2l183 667h47l-205 -714h-50l-196 676h-2l-193 -676h-49zM443 780l-134 140h51l120 -140h-37z" />
    <glyph glyph-name="Yacute" unicode="&#xdd;" horiz-adv-x="574" 
d="M546 714h49l-287 -415v-299h-44v299l-285 415h50l258 -378zM372 920h51l-134 -140h-37z" />
    <glyph glyph-name="Ycircumflex" unicode="&#x176;" horiz-adv-x="574" 
d="M546 714h49l-287 -415v-299h-44v299l-285 415h50l258 -378zM308 920l116 -140h-38l-98 115l-97 -115h-38l115 140h40z" />
    <glyph glyph-name="Ydieresis" unicode="&#x178;" horiz-adv-x="574" 
d="M546 714h49l-287 -415v-299h-44v299l-285 415h50l258 -378zM345 793v103h44v-103h-44zM187 793v103h44v-103h-44z" />
    <glyph glyph-name="Ygrave" unicode="&#x1ef2;" horiz-adv-x="574" 
d="M546 714h49l-287 -415v-299h-44v299l-285 415h50l258 -378zM288 780l-134 140h51l120 -140h-37z" />
    <glyph glyph-name="Zacute" unicode="&#x179;" horiz-adv-x="537" 
d="M28 714h501v-38l-484 -638h493v-38h-539v38l482 638h-453v38zM357 920h51l-134 -140h-37z" />
    <glyph glyph-name="Zcaron" unicode="&#x17d;" horiz-adv-x="537" 
d="M28 714h501v-38l-484 -638h493v-38h-539v38l482 638h-453v38zM253 780l-115 140h38l97 -115l98 115h38l-116 -140h-40z" />
    <glyph glyph-name="Zdotaccent" unicode="&#x17b;" horiz-adv-x="537" 
d="M28 714h501v-38l-484 -638h493v-38h-539v38l482 638h-453v38zM251 793v103h44v-103h-44z" />
    <glyph glyph-name="agrave" unicode="&#xe0;" horiz-adv-x="500" 
d="M397 102h-2q-9 -23 -26 -43.5t-41.5 -36.5t-55.5 -25t-68 -9q-82 0 -127 35.5t-45 109.5q0 45 18 73.5t45.5 45t61 23.5t64.5 10l59 5q41 3 64.5 9.5t35.5 18t15 29.5t3 45q0 21 -8 39t-25 32t-44 22t-66 8q-69 0 -111.5 -34t-46.5 -103h-38q4 85 54.5 127.5t143.5 42.5
t135.5 -36.5t42.5 -95.5v-299q0 -11 0.5 -22t3.5 -20t10 -14.5t20 -5.5q10 0 28 3v-32q-15 -4 -31 -4q-23 0 -36.5 6t-20.5 16t-9.5 23.5t-2.5 29.5v27zM397 292q-14 -17 -42.5 -23t-63.5 -9l-64 -6q-28 -3 -56 -8.5t-50.5 -18.5t-36.5 -35.5t-14 -58.5q0 -57 36 -84.5
t99 -27.5q65 0 103 23.5t58 54t25.5 59t5.5 38.5v96zM257 590l-134 140h51l120 -140h-37z" />
    <glyph glyph-name="aacute" unicode="&#xe1;" horiz-adv-x="500" 
d="M397 102h-2q-9 -23 -26 -43.5t-41.5 -36.5t-55.5 -25t-68 -9q-82 0 -127 35.5t-45 109.5q0 45 18 73.5t45.5 45t61 23.5t64.5 10l59 5q41 3 64.5 9.5t35.5 18t15 29.5t3 45q0 21 -8 39t-25 32t-44 22t-66 8q-69 0 -111.5 -34t-46.5 -103h-38q4 85 54.5 127.5t143.5 42.5
t135.5 -36.5t42.5 -95.5v-299q0 -11 0.5 -22t3.5 -20t10 -14.5t20 -5.5q10 0 28 3v-32q-15 -4 -31 -4q-23 0 -36.5 6t-20.5 16t-9.5 23.5t-2.5 29.5v27zM397 292q-14 -17 -42.5 -23t-63.5 -9l-64 -6q-28 -3 -56 -8.5t-50.5 -18.5t-36.5 -35.5t-14 -58.5q0 -57 36 -84.5
t99 -27.5q65 0 103 23.5t58 54t25.5 59t5.5 38.5v96zM341 730h51l-134 -140h-37z" />
    <glyph glyph-name="acircumflex" unicode="&#xe2;" horiz-adv-x="500" 
d="M397 102h-2q-9 -23 -26 -43.5t-41.5 -36.5t-55.5 -25t-68 -9q-82 0 -127 35.5t-45 109.5q0 45 18 73.5t45.5 45t61 23.5t64.5 10l59 5q41 3 64.5 9.5t35.5 18t15 29.5t3 45q0 21 -8 39t-25 32t-44 22t-66 8q-69 0 -111.5 -34t-46.5 -103h-38q4 85 54.5 127.5t143.5 42.5
t135.5 -36.5t42.5 -95.5v-299q0 -11 0.5 -22t3.5 -20t10 -14.5t20 -5.5q10 0 28 3v-32q-15 -4 -31 -4q-23 0 -36.5 6t-20.5 16t-9.5 23.5t-2.5 29.5v27zM397 292q-14 -17 -42.5 -23t-63.5 -9l-64 -6q-28 -3 -56 -8.5t-50.5 -18.5t-36.5 -35.5t-14 -58.5q0 -57 36 -84.5
t99 -27.5q65 0 103 23.5t58 54t25.5 59t5.5 38.5v96zM277 730l116 -140h-38l-98 115l-97 -115h-38l115 140h40z" />
    <glyph glyph-name="atilde" unicode="&#xe3;" horiz-adv-x="500" 
d="M397 102h-2q-9 -23 -26 -43.5t-41.5 -36.5t-55.5 -25t-68 -9q-82 0 -127 35.5t-45 109.5q0 45 18 73.5t45.5 45t61 23.5t64.5 10l59 5q41 3 64.5 9.5t35.5 18t15 29.5t3 45q0 21 -8 39t-25 32t-44 22t-66 8q-69 0 -111.5 -34t-46.5 -103h-38q4 85 54.5 127.5t143.5 42.5
t135.5 -36.5t42.5 -95.5v-299q0 -11 0.5 -22t3.5 -20t10 -14.5t20 -5.5q10 0 28 3v-32q-15 -4 -31 -4q-23 0 -36.5 6t-20.5 16t-9.5 23.5t-2.5 29.5v27zM397 292q-14 -17 -42.5 -23t-63.5 -9l-64 -6q-28 -3 -56 -8.5t-50.5 -18.5t-36.5 -35.5t-14 -58.5q0 -57 36 -84.5
t99 -27.5q65 0 103 23.5t58 54t25.5 59t5.5 38.5v96zM112 609q1 16 7 32.5t15.5 29t23.5 20.5t32 8q19 0 37 -9t35 -19.5t33.5 -19.5t31.5 -9q21 0 32 18.5t13 38.5h29q-2 -17 -7 -33t-14 -28.5t-22.5 -20.5t-32.5 -8q-17 0 -34 9t-34.5 19.5t-34.5 19.5t-34 9
q-20 0 -31.5 -17t-15.5 -40h-29z" />
    <glyph glyph-name="adieresis" unicode="&#xe4;" horiz-adv-x="500" 
d="M397 102h-2q-9 -23 -26 -43.5t-41.5 -36.5t-55.5 -25t-68 -9q-82 0 -127 35.5t-45 109.5q0 45 18 73.5t45.5 45t61 23.5t64.5 10l59 5q41 3 64.5 9.5t35.5 18t15 29.5t3 45q0 21 -8 39t-25 32t-44 22t-66 8q-69 0 -111.5 -34t-46.5 -103h-38q4 85 54.5 127.5t143.5 42.5
t135.5 -36.5t42.5 -95.5v-299q0 -11 0.5 -22t3.5 -20t10 -14.5t20 -5.5q10 0 28 3v-32q-15 -4 -31 -4q-23 0 -36.5 6t-20.5 16t-9.5 23.5t-2.5 29.5v27zM397 292q-14 -17 -42.5 -23t-63.5 -9l-64 -6q-28 -3 -56 -8.5t-50.5 -18.5t-36.5 -35.5t-14 -58.5q0 -57 36 -84.5
t99 -27.5q65 0 103 23.5t58 54t25.5 59t5.5 38.5v96zM314 603v103h44v-103h-44zM156 603v103h44v-103h-44z" />
    <glyph glyph-name="amacron" unicode="&#x101;" horiz-adv-x="500" 
d="M397 102h-2q-9 -23 -26 -43.5t-41.5 -36.5t-55.5 -25t-68 -9q-82 0 -127 35.5t-45 109.5q0 45 18 73.5t45.5 45t61 23.5t64.5 10l59 5q41 3 64.5 9.5t35.5 18t15 29.5t3 45q0 21 -8 39t-25 32t-44 22t-66 8q-69 0 -111.5 -34t-46.5 -103h-38q4 85 54.5 127.5t143.5 42.5
t135.5 -36.5t42.5 -95.5v-299q0 -11 0.5 -22t3.5 -20t10 -14.5t20 -5.5q10 0 28 3v-32q-15 -4 -31 -4q-23 0 -36.5 6t-20.5 16t-9.5 23.5t-2.5 29.5v27zM397 292q-14 -17 -42.5 -23t-63.5 -9l-64 -6q-28 -3 -56 -8.5t-50.5 -18.5t-36.5 -35.5t-14 -58.5q0 -57 36 -84.5
t99 -27.5q65 0 103 23.5t58 54t25.5 59t5.5 38.5v96zM136 638v33h242v-33h-242z" />
    <glyph glyph-name="abreve" unicode="&#x103;" horiz-adv-x="500" 
d="M397 102h-2q-9 -23 -26 -43.5t-41.5 -36.5t-55.5 -25t-68 -9q-82 0 -127 35.5t-45 109.5q0 45 18 73.5t45.5 45t61 23.5t64.5 10l59 5q41 3 64.5 9.5t35.5 18t15 29.5t3 45q0 21 -8 39t-25 32t-44 22t-66 8q-69 0 -111.5 -34t-46.5 -103h-38q4 85 54.5 127.5t143.5 42.5
t135.5 -36.5t42.5 -95.5v-299q0 -11 0.5 -22t3.5 -20t10 -14.5t20 -5.5q10 0 28 3v-32q-15 -4 -31 -4q-23 0 -36.5 6t-20.5 16t-9.5 23.5t-2.5 29.5v27zM397 292q-14 -17 -42.5 -23t-63.5 -9l-64 -6q-28 -3 -56 -8.5t-50.5 -18.5t-36.5 -35.5t-14 -58.5q0 -57 36 -84.5
t99 -27.5q65 0 103 23.5t58 54t25.5 59t5.5 38.5v96zM393 720q-3 -24 -14.5 -46t-29 -38.5t-40 -26t-47.5 -9.5q-57 0 -95 31.5t-45 88.5h33q6 -26 18 -43t26.5 -27t30.5 -13.5t31 -3.5q39 0 65.5 24t33.5 63h33z" />
    <glyph glyph-name="aring" unicode="&#xe5;" horiz-adv-x="500" 
d="M397 102h-2q-9 -23 -26 -43.5t-41.5 -36.5t-55.5 -25t-68 -9q-82 0 -127 35.5t-45 109.5q0 45 18 73.5t45.5 45t61 23.5t64.5 10l59 5q41 3 64.5 9.5t35.5 18t15 29.5t3 45q0 21 -8 39t-25 32t-44 22t-66 8q-69 0 -111.5 -34t-46.5 -103h-38q4 85 54.5 127.5t143.5 42.5
t135.5 -36.5t42.5 -95.5v-299q0 -11 0.5 -22t3.5 -20t10 -14.5t20 -5.5q10 0 28 3v-32q-15 -4 -31 -4q-23 0 -36.5 6t-20.5 16t-9.5 23.5t-2.5 29.5v27zM397 292q-14 -17 -42.5 -23t-63.5 -9l-64 -6q-28 -3 -56 -8.5t-50.5 -18.5t-36.5 -35.5t-14 -58.5q0 -57 36 -84.5
t99 -27.5q65 0 103 23.5t58 54t25.5 59t5.5 38.5v96zM158 670q0 42 28.5 70.5t70.5 28.5t70.5 -28.5t28.5 -70.5t-28.5 -70.5t-70.5 -28.5t-70.5 28.5t-28.5 70.5zM185 670q0 -30 21 -51t51 -21t51 21t21 51t-21 51t-51 21t-51 -21t-21 -51z" />
    <glyph glyph-name="aringacute" unicode="&#x1fb;" horiz-adv-x="500" 
d="M397 102h-2q-9 -23 -26 -43.5t-41.5 -36.5t-55.5 -25t-68 -9q-82 0 -127 35.5t-45 109.5q0 45 18 73.5t45.5 45t61 23.5t64.5 10l59 5q41 3 64.5 9.5t35.5 18t15 29.5t3 45q0 21 -8 39t-25 32t-44 22t-66 8q-69 0 -111.5 -34t-46.5 -103h-38q4 85 54.5 127.5t143.5 42.5
t135.5 -36.5t42.5 -95.5v-299q0 -11 0.5 -22t3.5 -20t10 -14.5t20 -5.5q10 0 28 3v-32q-15 -4 -31 -4q-23 0 -36.5 6t-20.5 16t-9.5 23.5t-2.5 29.5v27zM397 292q-14 -17 -42.5 -23t-63.5 -9l-64 -6q-28 -3 -56 -8.5t-50.5 -18.5t-36.5 -35.5t-14 -58.5q0 -57 36 -84.5
t99 -27.5q65 0 103 23.5t58 54t25.5 59t5.5 38.5v96zM158 658q0 42 28.5 70.5t70.5 28.5t70.5 -28.5t28.5 -70.5t-28.5 -70.5t-70.5 -28.5t-70.5 28.5t-28.5 70.5zM185 658q0 -30 21 -51t51 -21t51 21t21 51t-21 51t-51 21t-51 -21t-21 -51zM343 920h51l-134 -140h-37z" />
    <glyph glyph-name="aogonek" unicode="&#x105;" horiz-adv-x="500" 
d="M397 102h-2q-9 -23 -26 -43.5t-41.5 -36.5t-55.5 -25t-68 -9q-82 0 -127 35.5t-45 109.5q0 45 18 73.5t45.5 45t61 23.5t64.5 10l59 5q41 3 64.5 9.5t35.5 18t15 29.5t3 45q0 21 -8 39t-25 32t-44 22t-66 8q-69 0 -111.5 -34t-46.5 -103h-38q4 85 54.5 127.5t143.5 42.5
t135.5 -36.5t42.5 -95.5v-299q0 -11 0.5 -22t3.5 -20t10 -14.5t20 -5.5q10 0 28 3v-32q-15 -4 -31 -4h-10q-25 -22 -41 -39t-25 -31.5t-12.5 -26.5t-3.5 -24q0 -20 12.5 -31t30.5 -11q19 0 32 7.5t26 27.5l23 -8q-25 -60 -86 -60q-37 0 -59.5 16.5t-22.5 51.5q0 12 4 25.5
t15.5 29.5t32.5 35t55 41q-26 8 -33 27t-7 45v27zM397 292q-14 -17 -42.5 -23t-63.5 -9l-64 -6q-28 -3 -56 -8.5t-50.5 -18.5t-36.5 -35.5t-14 -58.5q0 -57 36 -84.5t99 -27.5q65 0 103 23.5t58 54t25.5 59t5.5 38.5v96z" />
    <glyph glyph-name="ae" unicode="&#xe6;" horiz-adv-x="889" 
d="M445 252q-3 -47 7.5 -89t34 -73.5t60 -50t86.5 -18.5q73 0 120.5 38.5t58.5 111.5h38q-14 -87 -71.5 -135t-145.5 -48q-78 0 -133 37t-73 112h-2q-25 -69 -79.5 -109t-129.5 -40q-36 0 -69.5 8t-59 25.5t-40.5 44.5t-15 65q0 46 18 75.5t46 46t60.5 23t62.5 7.5
q33 4 67.5 4.5t62 7.5t44 24t13.5 54q0 63 -37 91.5t-113 28.5q-69 0 -114 -33t-50 -107h-38q6 89 61 131t141 42q34 0 65.5 -6t56 -21t40 -40t18.5 -64h2q24 67 74.5 99t120.5 32q59 0 103 -22.5t72.5 -60t40.5 -87t7 -104.5h-411zM818 285q1 42 -11.5 79.5t-36.5 66
t-59 45.5t-78 17q-47 0 -81 -17t-57 -45.5t-35.5 -66t-15.5 -79.5h374zM406 289h-2q-6 -11 -24.5 -17t-44 -9t-57 -5t-63.5 -5q-29 -2 -55.5 -9t-46.5 -21t-31.5 -36.5t-11.5 -55.5q0 -30 12.5 -50.5t33.5 -34t47 -19.5t53 -6q37 0 71 14t60 38t42 57t17 71v88z" />
    <glyph glyph-name="aeacute" unicode="&#x1fd;" horiz-adv-x="889" 
d="M445 252q-3 -47 7.5 -89t34 -73.5t60 -50t86.5 -18.5q73 0 120.5 38.5t58.5 111.5h38q-14 -87 -71.5 -135t-145.5 -48q-78 0 -133 37t-73 112h-2q-25 -69 -79.5 -109t-129.5 -40q-36 0 -69.5 8t-59 25.5t-40.5 44.5t-15 65q0 46 18 75.5t46 46t60.5 23t62.5 7.5
q33 4 67.5 4.5t62 7.5t44 24t13.5 54q0 63 -37 91.5t-113 28.5q-69 0 -114 -33t-50 -107h-38q6 89 61 131t141 42q34 0 65.5 -6t56 -21t40 -40t18.5 -64h2q24 67 74.5 99t120.5 32q59 0 103 -22.5t72.5 -60t40.5 -87t7 -104.5h-411zM818 285q1 42 -11.5 79.5t-36.5 66
t-59 45.5t-78 17q-47 0 -81 -17t-57 -45.5t-35.5 -66t-15.5 -79.5h374zM406 289h-2q-6 -11 -24.5 -17t-44 -9t-57 -5t-63.5 -5q-29 -2 -55.5 -9t-46.5 -21t-31.5 -36.5t-11.5 -55.5q0 -30 12.5 -50.5t33.5 -34t47 -19.5t53 -6q37 0 71 14t60 38t42 57t17 71v88zM557 730h51
l-134 -140h-37z" />
    <glyph glyph-name="cacute" unicode="&#x107;" 
d="M443 355q-3 34 -17.5 60t-37.5 43t-53.5 26t-65.5 9q-48 0 -85 -19.5t-62 -52t-38 -74t-13 -85.5q0 -52 12 -96t37 -76.5t62 -50.5t87 -18q36 0 66.5 12t54 33t38.5 50.5t20 64.5h38q-6 -46 -25 -82t-48 -60.5t-66 -37.5t-78 -13q-63 0 -107.5 22.5t-73 60.5t-42 87.5
t-13.5 103.5t15.5 102t45.5 84t74 57t101 21q42 0 78.5 -10.5t65 -31.5t46.5 -53.5t22 -75.5h-38zM352 730h51l-134 -140h-37z" />
    <glyph glyph-name="ccircumflex" unicode="&#x109;" 
d="M443 355q-3 34 -17.5 60t-37.5 43t-53.5 26t-65.5 9q-48 0 -85 -19.5t-62 -52t-38 -74t-13 -85.5q0 -52 12 -96t37 -76.5t62 -50.5t87 -18q36 0 66.5 12t54 33t38.5 50.5t20 64.5h38q-6 -46 -25 -82t-48 -60.5t-66 -37.5t-78 -13q-63 0 -107.5 22.5t-73 60.5t-42 87.5
t-13.5 103.5t15.5 102t45.5 84t74 57t101 21q42 0 78.5 -10.5t65 -31.5t46.5 -53.5t22 -75.5h-38zM288 730l116 -140h-38l-98 115l-97 -115h-38l115 140h40z" />
    <glyph glyph-name="ccaron" unicode="&#x10d;" 
d="M443 355q-3 34 -17.5 60t-37.5 43t-53.5 26t-65.5 9q-48 0 -85 -19.5t-62 -52t-38 -74t-13 -85.5q0 -52 12 -96t37 -76.5t62 -50.5t87 -18q36 0 66.5 12t54 33t38.5 50.5t20 64.5h38q-6 -46 -25 -82t-48 -60.5t-66 -37.5t-78 -13q-63 0 -107.5 22.5t-73 60.5t-42 87.5
t-13.5 103.5t15.5 102t45.5 84t74 57t101 21q42 0 78.5 -10.5t65 -31.5t46.5 -53.5t22 -75.5h-38zM248 590l-115 140h38l97 -115l98 115h38l-116 -140h-40z" />
    <glyph glyph-name="cdotaccent" unicode="&#x10b;" 
d="M443 355q-3 34 -17.5 60t-37.5 43t-53.5 26t-65.5 9q-48 0 -85 -19.5t-62 -52t-38 -74t-13 -85.5q0 -52 12 -96t37 -76.5t62 -50.5t87 -18q36 0 66.5 12t54 33t38.5 50.5t20 64.5h38q-6 -46 -25 -82t-48 -60.5t-66 -37.5t-78 -13q-63 0 -107.5 22.5t-73 60.5t-42 87.5
t-13.5 103.5t15.5 102t45.5 84t74 57t101 21q42 0 78.5 -10.5t65 -31.5t46.5 -53.5t22 -75.5h-38zM246 603v103h44v-103h-44z" />
    <glyph glyph-name="ccedilla" unicode="&#xe7;" 
d="M443 355q-3 34 -17.5 60t-37.5 43t-53.5 26t-65.5 9q-48 0 -85 -19.5t-62 -52t-38 -74t-13 -85.5q0 -52 12 -96t37 -76.5t62 -50.5t87 -18q36 0 66.5 12t54 33t38.5 50.5t20 64.5h38q-6 -45 -24 -80t-45.5 -59.5t-62 -38t-73.5 -15.5l-38 -44l1 -1q17 7 38 7
q31 0 52.5 -16.5t21.5 -50.5q0 -40 -28 -59.5t-70 -19.5q-29 0 -51 7t-41 18l11 24q17 -9 36.5 -15.5t43.5 -6.5q27 0 44 13t17 37q0 19 -14.5 31t-37.5 12q-14 0 -26 -3.5t-23 -8.5l-16 13l47 64q-57 4 -97.5 27.5t-67 61t-38.5 85t-12 99.5q0 54 15.5 102t45.5 84t74 57
t101 21q42 0 78.5 -10.5t65 -31.5t46.5 -53.5t22 -75.5h-38z" />
    <glyph glyph-name="dcaron" unicode="&#x10f;" horiz-adv-x="556" 
d="M453 110h-2q-32 -61 -80 -91.5t-117 -30.5q-58 0 -100 22t-69 59t-40 85.5t-13 101.5q0 57 14 106.5t42.5 85.5t71.5 57t101 21q31 0 61 -8.5t55.5 -24.5t44.5 -40t29 -54h2v315h38v-714h-38v110zM262 21q49 0 84.5 20t59 53t35 75.5t11.5 86.5q0 45 -11.5 87.5t-34.5 76
t-59.5 53.5t-85.5 20q-51 0 -87 -19.5t-59.5 -52.5t-34 -76t-10.5 -89q0 -45 11.5 -87.5t35 -75.5t59.5 -52.5t86 -19.5zM597 714h51l-87 -140h-29z" />
    <glyph glyph-name="dcroat" unicode="&#x111;" horiz-adv-x="556" 
d="M453 110h-2q-32 -61 -80 -91.5t-117 -30.5q-58 0 -100 22t-69 59t-40 85.5t-13 101.5q0 57 14 106.5t42.5 85.5t71.5 57t101 21q31 0 61 -8.5t55.5 -24.5t44.5 -40t29 -54h2v190h-195v31h195v94h38v-94h82v-31h-82v-589h-38v110zM262 21q49 0 84.5 20t59 53t35 75.5
t11.5 86.5q0 45 -11.5 87.5t-34.5 76t-59.5 53.5t-85.5 20q-51 0 -87 -19.5t-59.5 -52.5t-34 -76t-10.5 -89q0 -45 11.5 -87.5t35 -75.5t59.5 -52.5t86 -19.5z" />
    <glyph glyph-name="eth" unicode="&#xf0;" horiz-adv-x="537" 
d="M254 642q-25 19 -51.5 36t-51.5 29l28 24q58 -31 108 -71l115 64l20 -22l-109 -61q96 -76 143.5 -171t47.5 -221q0 -54 -14.5 -101.5t-44 -83t-73.5 -56t-103 -20.5q-60 0 -105 20t-74 55.5t-43.5 83t-14.5 102.5q0 52 15.5 98.5t46 82t74.5 56t101 20.5q45 0 86 -15
t77 -59l2 2q-22 51 -63 99.5t-92 88.5l-112 -62l-21 22zM269 473q-49 0 -86 -18.5t-62 -50t-38 -72t-13 -83.5q0 -44 12 -85.5t37 -73t62 -50.5t88 -19t88.5 18.5t61.5 50t35.5 73t11.5 86.5q0 43 -12.5 83.5t-37 72t-61.5 50t-86 18.5z" />
    <glyph glyph-name="egrave" unicode="&#xe8;" 
d="M71 252v-6q0 -45 12 -86t35.5 -72t59 -49t82.5 -18q77 0 122 40.5t62 112.5h38q-17 -90 -73.5 -138t-149.5 -48q-57 0 -99.5 20.5t-71 56t-42.5 84t-14 104.5q0 54 14.5 103.5t43.5 87t72.5 60t102.5 22.5q54 0 95.5 -20t69.5 -54.5t42.5 -80t14.5 -97.5q0 -5 -0.5 -11.5
t-0.5 -10.5h-415zM448 285q-2 42 -14 79.5t-35.5 66t-57 45.5t-76.5 17q-46 0 -81 -17.5t-59 -46t-37 -66.5t-16 -78h376zM261 590l-134 140h51l120 -140h-37z" />
    <glyph glyph-name="eacute" unicode="&#xe9;" 
d="M71 252v-6q0 -45 12 -86t35.5 -72t59 -49t82.5 -18q77 0 122 40.5t62 112.5h38q-17 -90 -73.5 -138t-149.5 -48q-57 0 -99.5 20.5t-71 56t-42.5 84t-14 104.5q0 54 14.5 103.5t43.5 87t72.5 60t102.5 22.5q54 0 95.5 -20t69.5 -54.5t42.5 -80t14.5 -97.5q0 -5 -0.5 -11.5
t-0.5 -10.5h-415zM448 285q-2 42 -14 79.5t-35.5 66t-57 45.5t-76.5 17q-46 0 -81 -17.5t-59 -46t-37 -66.5t-16 -78h376zM345 730h51l-134 -140h-37z" />
    <glyph glyph-name="ecircumflex" unicode="&#xea;" 
d="M71 252v-6q0 -45 12 -86t35.5 -72t59 -49t82.5 -18q77 0 122 40.5t62 112.5h38q-17 -90 -73.5 -138t-149.5 -48q-57 0 -99.5 20.5t-71 56t-42.5 84t-14 104.5q0 54 14.5 103.5t43.5 87t72.5 60t102.5 22.5q54 0 95.5 -20t69.5 -54.5t42.5 -80t14.5 -97.5q0 -5 -0.5 -11.5
t-0.5 -10.5h-415zM448 285q-2 42 -14 79.5t-35.5 66t-57 45.5t-76.5 17q-46 0 -81 -17.5t-59 -46t-37 -66.5t-16 -78h376zM281 730l116 -140h-38l-98 115l-97 -115h-38l115 140h40z" />
    <glyph glyph-name="ecaron" unicode="&#x11b;" 
d="M71 252v-6q0 -45 12 -86t35.5 -72t59 -49t82.5 -18q77 0 122 40.5t62 112.5h38q-17 -90 -73.5 -138t-149.5 -48q-57 0 -99.5 20.5t-71 56t-42.5 84t-14 104.5q0 54 14.5 103.5t43.5 87t72.5 60t102.5 22.5q54 0 95.5 -20t69.5 -54.5t42.5 -80t14.5 -97.5q0 -5 -0.5 -11.5
t-0.5 -10.5h-415zM448 285q-2 42 -14 79.5t-35.5 66t-57 45.5t-76.5 17q-46 0 -81 -17.5t-59 -46t-37 -66.5t-16 -78h376zM241 590l-115 140h38l97 -115l98 115h38l-116 -140h-40z" />
    <glyph glyph-name="edieresis" unicode="&#xeb;" 
d="M71 252v-6q0 -45 12 -86t35.5 -72t59 -49t82.5 -18q77 0 122 40.5t62 112.5h38q-17 -90 -73.5 -138t-149.5 -48q-57 0 -99.5 20.5t-71 56t-42.5 84t-14 104.5q0 54 14.5 103.5t43.5 87t72.5 60t102.5 22.5q54 0 95.5 -20t69.5 -54.5t42.5 -80t14.5 -97.5q0 -5 -0.5 -11.5
t-0.5 -10.5h-415zM448 285q-2 42 -14 79.5t-35.5 66t-57 45.5t-76.5 17q-46 0 -81 -17.5t-59 -46t-37 -66.5t-16 -78h376zM318 603v103h44v-103h-44zM160 603v103h44v-103h-44z" />
    <glyph glyph-name="emacron" unicode="&#x113;" 
d="M71 252v-6q0 -45 12 -86t35.5 -72t59 -49t82.5 -18q77 0 122 40.5t62 112.5h38q-17 -90 -73.5 -138t-149.5 -48q-57 0 -99.5 20.5t-71 56t-42.5 84t-14 104.5q0 54 14.5 103.5t43.5 87t72.5 60t102.5 22.5q54 0 95.5 -20t69.5 -54.5t42.5 -80t14.5 -97.5q0 -5 -0.5 -11.5
t-0.5 -10.5h-415zM448 285q-2 42 -14 79.5t-35.5 66t-57 45.5t-76.5 17q-46 0 -81 -17.5t-59 -46t-37 -66.5t-16 -78h376zM140 638v33h242v-33h-242z" />
    <glyph glyph-name="ebreve" unicode="&#x115;" 
d="M71 252v-6q0 -45 12 -86t35.5 -72t59 -49t82.5 -18q77 0 122 40.5t62 112.5h38q-17 -90 -73.5 -138t-149.5 -48q-57 0 -99.5 20.5t-71 56t-42.5 84t-14 104.5q0 54 14.5 103.5t43.5 87t72.5 60t102.5 22.5q54 0 95.5 -20t69.5 -54.5t42.5 -80t14.5 -97.5q0 -5 -0.5 -11.5
t-0.5 -10.5h-415zM448 285q-2 42 -14 79.5t-35.5 66t-57 45.5t-76.5 17q-46 0 -81 -17.5t-59 -46t-37 -66.5t-16 -78h376zM397 720q-3 -24 -14.5 -46t-29 -38.5t-40 -26t-47.5 -9.5q-57 0 -95 31.5t-45 88.5h33q6 -26 18 -43t26.5 -27t30.5 -13.5t31 -3.5q39 0 65.5 24
t33.5 63h33z" />
    <glyph glyph-name="edotaccent" unicode="&#x117;" 
d="M71 252v-6q0 -45 12 -86t35.5 -72t59 -49t82.5 -18q77 0 122 40.5t62 112.5h38q-17 -90 -73.5 -138t-149.5 -48q-57 0 -99.5 20.5t-71 56t-42.5 84t-14 104.5q0 54 14.5 103.5t43.5 87t72.5 60t102.5 22.5q54 0 95.5 -20t69.5 -54.5t42.5 -80t14.5 -97.5q0 -5 -0.5 -11.5
t-0.5 -10.5h-415zM448 285q-2 42 -14 79.5t-35.5 66t-57 45.5t-76.5 17q-46 0 -81 -17.5t-59 -46t-37 -66.5t-16 -78h376zM239 603v103h44v-103h-44z" />
    <glyph glyph-name="eogonek" unicode="&#x119;" 
d="M71 252v-6q0 -45 12 -86t35.5 -72t59 -49t82.5 -18q77 0 122 40.5t62 112.5h38q-16 -83 -65 -130t-129 -55q-42 -38 -56 -63t-14 -47q0 -20 12.5 -31t30.5 -11q19 0 32 7.5t26 27.5l23 -8q-25 -60 -86 -60q-37 0 -59.5 16.5t-22.5 51.5q0 11 3.5 23.5t12.5 26.5
t25.5 30.5t42.5 35.5q-56 0 -98.5 20.5t-71 56t-42.5 84t-14 104.5q0 54 14.5 103.5t43.5 87t72.5 60t102.5 22.5q54 0 95.5 -20t69.5 -54.5t42.5 -80t14.5 -97.5q0 -5 -0.5 -11.5t-0.5 -10.5h-415zM448 285q-2 42 -14 79.5t-35.5 66t-57 45.5t-76.5 17q-46 0 -81 -17.5
t-59 -46t-37 -66.5t-16 -78h376z" />
    <glyph glyph-name="gcircumflex" unicode="&#x11d;" horiz-adv-x="537" 
d="M481 514v-487q0 -43 -10 -83.5t-34.5 -71.5t-67.5 -49.5t-109 -18.5q-41 0 -77 8.5t-63 27t-43.5 49t-18.5 75.5h38q3 -34 17 -58t36.5 -39.5t50.5 -22.5t60 -7q53 0 88.5 16t56.5 41.5t29.5 58t8.5 65.5v118h-2q-27 -57 -73.5 -87t-112.5 -30q-57 0 -98.5 19.5t-69 54
t-41 80.5t-13.5 100q0 51 14.5 97t42.5 80.5t69.5 55t95.5 20.5q61 0 112.5 -31t73.5 -88h2v107h38zM255 493q-47 0 -81.5 -19t-57 -50t-34 -70.5t-11.5 -80.5q0 -45 11.5 -85.5t35 -70.5t58 -47.5t79.5 -17.5q47 0 82 18t58.5 49t35 70.5t11.5 83.5q0 43 -11.5 83t-35 70.5
t-58.5 48.5t-82 18zM288 730l116 -140h-38l-98 115l-97 -115h-38l115 140h40z" />
    <glyph glyph-name="gbreve" unicode="&#x11f;" horiz-adv-x="537" 
d="M481 514v-487q0 -43 -10 -83.5t-34.5 -71.5t-67.5 -49.5t-109 -18.5q-41 0 -77 8.5t-63 27t-43.5 49t-18.5 75.5h38q3 -34 17 -58t36.5 -39.5t50.5 -22.5t60 -7q53 0 88.5 16t56.5 41.5t29.5 58t8.5 65.5v118h-2q-27 -57 -73.5 -87t-112.5 -30q-57 0 -98.5 19.5t-69 54
t-41 80.5t-13.5 100q0 51 14.5 97t42.5 80.5t69.5 55t95.5 20.5q61 0 112.5 -31t73.5 -88h2v107h38zM255 493q-47 0 -81.5 -19t-57 -50t-34 -70.5t-11.5 -80.5q0 -45 11.5 -85.5t35 -70.5t58 -47.5t79.5 -17.5q47 0 82 18t58.5 49t35 70.5t11.5 83.5q0 43 -11.5 83t-35 70.5
t-58.5 48.5t-82 18zM404 720q-3 -24 -14.5 -46t-29 -38.5t-40 -26t-47.5 -9.5q-57 0 -95 31.5t-45 88.5h33q6 -26 18 -43t26.5 -27t30.5 -13.5t31 -3.5q39 0 65.5 24t33.5 63h33z" />
    <glyph glyph-name="gdotaccent" unicode="&#x121;" horiz-adv-x="537" 
d="M481 514v-487q0 -43 -10 -83.5t-34.5 -71.5t-67.5 -49.5t-109 -18.5q-41 0 -77 8.5t-63 27t-43.5 49t-18.5 75.5h38q3 -34 17 -58t36.5 -39.5t50.5 -22.5t60 -7q53 0 88.5 16t56.5 41.5t29.5 58t8.5 65.5v118h-2q-27 -57 -73.5 -87t-112.5 -30q-57 0 -98.5 19.5t-69 54
t-41 80.5t-13.5 100q0 51 14.5 97t42.5 80.5t69.5 55t95.5 20.5q61 0 112.5 -31t73.5 -88h2v107h38zM255 493q-47 0 -81.5 -19t-57 -50t-34 -70.5t-11.5 -80.5q0 -45 11.5 -85.5t35 -70.5t58 -47.5t79.5 -17.5q47 0 82 18t58.5 49t35 70.5t11.5 83.5q0 43 -11.5 83t-35 70.5
t-58.5 48.5t-82 18zM247 603v103h44v-103h-44z" />
    <glyph glyph-name="gcommaaccent" unicode="&#x123;" horiz-adv-x="537" 
d="M481 514v-487q0 -43 -10 -83.5t-34.5 -71.5t-67.5 -49.5t-109 -18.5q-41 0 -77 8.5t-63 27t-43.5 49t-18.5 75.5h38q3 -34 17 -58t36.5 -39.5t50.5 -22.5t60 -7q53 0 88.5 16t56.5 41.5t29.5 58t8.5 65.5v118h-2q-27 -57 -73.5 -87t-112.5 -30q-57 0 -98.5 19.5t-69 54
t-41 80.5t-13.5 100q0 51 14.5 97t42.5 80.5t69.5 55t95.5 20.5q61 0 112.5 -31t73.5 -88h2v107h38zM255 493q-47 0 -81.5 -19t-57 -50t-34 -70.5t-11.5 -80.5q0 -45 11.5 -85.5t35 -70.5t58 -47.5t79.5 -17.5q47 0 82 18t58.5 49t35 70.5t11.5 83.5q0 43 -11.5 83t-35 70.5
t-58.5 48.5t-82 18zM302 747q-13 -3 -21 -10.5t-10 -22.5h25v-93h-57v80q0 61 63 66v-20z" />
    <glyph glyph-name="hcircumflex" unicode="&#x125;" 
d="M94 714v-310h2q10 29 28.5 51.5t43 38.5t53.5 24t59 8q45 0 76.5 -11t51.5 -29t31.5 -40.5t16.5 -45.5t6 -44.5t1 -37.5v-318h-38v325q0 19 -3 48t-17.5 55.5t-44 45.5t-81.5 19q-44 0 -78 -16t-58 -44.5t-36.5 -68t-12.5 -86.5v-278h-38v714h38zM270 920l116 -140h-38
l-98 115l-97 -115h-38l115 140h40z" />
    <glyph glyph-name="hbar" unicode="&#x127;" 
d="M94 714v-94h195v-31h-195v-185h2q10 29 28.5 51.5t43 38.5t53.5 24t59 8q45 0 76.5 -11t51.5 -29t31.5 -40.5t16.5 -45.5t6 -44.5t1 -37.5v-318h-38v325q0 19 -3 48t-17.5 55.5t-44 45.5t-81.5 19q-44 0 -78 -16t-58 -44.5t-36.5 -68t-12.5 -86.5v-278h-38v589h-82v31h82
v94h38z" />
    <glyph glyph-name="dotlessi" unicode="&#x131;" horiz-adv-x="168" 
d="M65 0v514h38v-514h-38z" />
    <glyph glyph-name="igrave" unicode="&#xec;" horiz-adv-x="168" 
d="M65 0v514h38v-514h-38zM73 590l-134 140h51l120 -140h-37z" />
    <glyph glyph-name="iacute" unicode="&#xed;" horiz-adv-x="168" 
d="M65 0v514h38v-514h-38zM179 730h51l-134 -140h-37z" />
    <glyph glyph-name="ibreve" unicode="&#x12d;" horiz-adv-x="168" 
d="M65 0v514h38v-514h-38zM220 720q-3 -24 -14.5 -46t-29 -38.5t-40 -26t-47.5 -9.5q-57 0 -95 31.5t-45 88.5h33q6 -26 18 -43t26.5 -27t30.5 -13.5t31 -3.5q39 0 65.5 24t33.5 63h33z" />
    <glyph glyph-name="icircumflex" unicode="&#xee;" horiz-adv-x="168" 
d="M65 0v514h38v-514h-38zM104 730l116 -140h-38l-98 115l-97 -115h-38l115 140h40z" />
    <glyph glyph-name="itilde" unicode="&#x129;" horiz-adv-x="168" 
d="M65 0v514h38v-514h-38zM-61 609q1 16 7 32.5t15.5 29t23.5 20.5t32 8q19 0 37 -9t35 -19.5t33.5 -19.5t31.5 -9q21 0 32 18.5t13 38.5h29q-2 -17 -7 -33t-14 -28.5t-22.5 -20.5t-32.5 -8q-17 0 -34 9t-34.5 19.5t-34.5 19.5t-34 9q-20 0 -31.5 -17t-15.5 -40h-29z" />
    <glyph glyph-name="idieresis" unicode="&#xef;" horiz-adv-x="168" 
d="M65 0v514h38v-514h-38zM141 603v103h44v-103h-44zM-17 603v103h44v-103h-44z" />
    <glyph glyph-name="imacron" unicode="&#x12b;" horiz-adv-x="168" 
d="M65 0v514h38v-514h-38zM-37 638v33h242v-33h-242z" />
    <glyph glyph-name="iogonek" unicode="&#x12f;" horiz-adv-x="168" 
d="M65 611v103h38v-103h-38zM103 0q-20 -22 -33 -39t-21 -31.5t-11.5 -26.5t-3.5 -24q0 -20 11 -31t27 -11q15 0 27.5 7.5t25.5 27.5l23 -8q-13 -31 -33.5 -45.5t-46.5 -14.5q-32 0 -54 16.5t-22 51.5q0 12 3.5 25t13.5 29t27 34.5t43 39.5h-14v514h38v-514z" />
    <glyph glyph-name="dotlessj" unicode="&#x237;" horiz-adv-x="168" 
d="M103 514v-569q0 -26 -4 -49.5t-15.5 -41t-32 -28t-53.5 -10.5h-16h-8t-8 1v33q5 -1 11 -1.5t14 -0.5q20 0 34 4.5t23 16t13 31t4 48.5v566h38z" />
    <glyph glyph-name="jcircumflex" unicode="&#x135;" horiz-adv-x="168" 
d="M103 514v-569q0 -26 -4 -49.5t-15.5 -41t-32 -28t-53.5 -10.5h-16h-8t-8 1v33q5 -1 11 -1.5t14 -0.5q20 0 34 4.5t23 16t13 31t4 48.5v566h38zM102 730l116 -140h-38l-98 115l-97 -115h-38l115 140h40z" />
    <glyph glyph-name="kcommaaccent" unicode="&#x137;" horiz-adv-x="463" 
d="M58 714h38v-473l317 273h55l-225 -192l241 -322h-52l-219 293l-117 -99v-194h-38v714zM225 -176q13 3 21 10.5t10 22.5h-25v93h57v-80q0 -61 -63 -66v20z" />
    <glyph glyph-name="kgreenlandic" unicode="&#x138;" horiz-adv-x="463" 
d="M56 514h38v-281l319 281h55l-227 -200l243 -314h-52l-221 285l-117 -99v-186h-38v514z" />
    <glyph glyph-name="lacute" unicode="&#x13a;" horiz-adv-x="168" 
d="M103 714v-714h-38v714h38zM179 920h51l-134 -140h-37z" />
    <glyph glyph-name="lcaron" unicode="&#x13e;" horiz-adv-x="168" 
d="M103 714v-714h-38v714h38zM209 714h51l-87 -140h-29z" />
    <glyph glyph-name="lcommaaccent" unicode="&#x13c;" horiz-adv-x="168" 
d="M103 714v-714h-38v714h38zM49 -176q13 3 21 10.5t10 22.5h-25v93h57v-80q0 -61 -63 -66v20z" />
    <glyph glyph-name="lslash" unicode="&#x142;" horiz-adv-x="168" 
d="M65 714h38v-286l70 54v-35l-70 -54v-393h-38v363l-70 -54v35l70 54v316z" />
    <glyph glyph-name="ldot" unicode="&#x140;" horiz-adv-x="248" 
d="M103 714v-714h-38v714h38zM178 329v103h44v-103h-44z" />
    <glyph glyph-name="nacute" unicode="&#x144;" 
d="M56 514h38v-110h2q10 29 28.5 51.5t43 38.5t53.5 24t59 8q45 0 76.5 -11t51.5 -29t31.5 -40.5t16.5 -45.5t6 -44.5t1 -37.5v-318h-38v325q0 19 -3 48t-17.5 55.5t-44 45.5t-81.5 19q-44 0 -78 -16t-58 -44.5t-36.5 -68t-12.5 -86.5v-278h-38v514zM344 730h51l-134 -140
h-37z" />
    <glyph glyph-name="ncaron" unicode="&#x148;" 
d="M56 514h38v-110h2q10 29 28.5 51.5t43 38.5t53.5 24t59 8q45 0 76.5 -11t51.5 -29t31.5 -40.5t16.5 -45.5t6 -44.5t1 -37.5v-318h-38v325q0 19 -3 48t-17.5 55.5t-44 45.5t-81.5 19q-44 0 -78 -16t-58 -44.5t-36.5 -68t-12.5 -86.5v-278h-38v514zM240 590l-115 140h38
l97 -115l98 115h38l-116 -140h-40z" />
    <glyph glyph-name="ntilde" unicode="&#xf1;" 
d="M56 514h38v-110h2q10 29 28.5 51.5t43 38.5t53.5 24t59 8q45 0 76.5 -11t51.5 -29t31.5 -40.5t16.5 -45.5t6 -44.5t1 -37.5v-318h-38v325q0 19 -3 48t-17.5 55.5t-44 45.5t-81.5 19q-44 0 -78 -16t-58 -44.5t-36.5 -68t-12.5 -86.5v-278h-38v514zM115 609q1 16 7 32.5
t15.5 29t23.5 20.5t32 8q19 0 37 -9t35 -19.5t33.5 -19.5t31.5 -9q21 0 32 18.5t13 38.5h29q-2 -17 -7 -33t-14 -28.5t-22.5 -20.5t-32.5 -8q-17 0 -34 9t-34.5 19.5t-34.5 19.5t-34 9q-20 0 -31.5 -17t-15.5 -40h-29z" />
    <glyph glyph-name="ncommaaccent" unicode="&#x146;" 
d="M56 514h38v-110h2q10 29 28.5 51.5t43 38.5t53.5 24t59 8q45 0 76.5 -11t51.5 -29t31.5 -40.5t16.5 -45.5t6 -44.5t1 -37.5v-318h-38v325q0 19 -3 48t-17.5 55.5t-44 45.5t-81.5 19q-44 0 -78 -16t-58 -44.5t-36.5 -68t-12.5 -86.5v-278h-38v514zM225 -176q13 3 21 10.5
t10 22.5h-25v93h57v-80q0 -61 -63 -66v20z" />
    <glyph glyph-name="napostrophe" unicode="&#x149;" horiz-adv-x="598" 
d="M135 514h38v-110h2q10 29 28.5 51.5t43 38.5t53.5 24t59 8q45 0 76.5 -11t51.5 -29t31.5 -40.5t16.5 -45.5t6 -44.5t1 -37.5v-318h-38v325q0 19 -3 48t-17.5 55.5t-44 45.5t-81.5 19q-44 0 -78 -16t-58 -44.5t-36.5 -68t-12.5 -86.5v-278h-38v514zM80 611q0 -20 -3 -39.5
t-10.5 -36.5t-20 -30t-30.5 -20v33q11 5 17.5 16.5t10.5 25t5 27.5t1 24h-21v103h51v-103z" />
    <glyph glyph-name="ograve" unicode="&#xf2;" horiz-adv-x="537" 
d="M32 257q0 55 15.5 103.5t45.5 85.5t74 58.5t101 21.5t101 -21.5t74 -58.5t45.5 -85.5t15.5 -103.5t-15.5 -104t-45.5 -85.5t-74 -58t-101 -21.5t-101 21.5t-74 58t-45.5 85.5t-15.5 104zM70 257q0 -46 13 -88.5t38 -75.5t62 -52.5t85 -19.5t85 19.5t62 52.5t38 75.5
t13 88.5t-13 88.5t-38 75.5t-62 52.5t-85 19.5t-85 -19.5t-62 -52.5t-38 -75.5t-13 -88.5zM273 590l-134 140h51l120 -140h-37z" />
    <glyph glyph-name="oacute" unicode="&#xf3;" horiz-adv-x="537" 
d="M32 257q0 55 15.5 103.5t45.5 85.5t74 58.5t101 21.5t101 -21.5t74 -58.5t45.5 -85.5t15.5 -103.5t-15.5 -104t-45.5 -85.5t-74 -58t-101 -21.5t-101 21.5t-74 58t-45.5 85.5t-15.5 104zM70 257q0 -46 13 -88.5t38 -75.5t62 -52.5t85 -19.5t85 19.5t62 52.5t38 75.5
t13 88.5t-13 88.5t-38 75.5t-62 52.5t-85 19.5t-85 -19.5t-62 -52.5t-38 -75.5t-13 -88.5zM347 730h51l-134 -140h-37z" />
    <glyph glyph-name="ocircumflex" unicode="&#xf4;" horiz-adv-x="537" 
d="M32 257q0 55 15.5 103.5t45.5 85.5t74 58.5t101 21.5t101 -21.5t74 -58.5t45.5 -85.5t15.5 -103.5t-15.5 -104t-45.5 -85.5t-74 -58t-101 -21.5t-101 21.5t-74 58t-45.5 85.5t-15.5 104zM70 257q0 -46 13 -88.5t38 -75.5t62 -52.5t85 -19.5t85 19.5t62 52.5t38 75.5
t13 88.5t-13 88.5t-38 75.5t-62 52.5t-85 19.5t-85 -19.5t-62 -52.5t-38 -75.5t-13 -88.5zM288 730l116 -140h-38l-98 115l-97 -115h-38l115 140h40z" />
    <glyph glyph-name="otilde" unicode="&#xf5;" horiz-adv-x="537" 
d="M32 257q0 55 15.5 103.5t45.5 85.5t74 58.5t101 21.5t101 -21.5t74 -58.5t45.5 -85.5t15.5 -103.5t-15.5 -104t-45.5 -85.5t-74 -58t-101 -21.5t-101 21.5t-74 58t-45.5 85.5t-15.5 104zM70 257q0 -46 13 -88.5t38 -75.5t62 -52.5t85 -19.5t85 19.5t62 52.5t38 75.5
t13 88.5t-13 88.5t-38 75.5t-62 52.5t-85 19.5t-85 -19.5t-62 -52.5t-38 -75.5t-13 -88.5zM123 609q1 16 7 32.5t15.5 29t23.5 20.5t32 8q19 0 37 -9t35 -19.5t33.5 -19.5t31.5 -9q21 0 32 18.5t13 38.5h29q-2 -17 -7 -33t-14 -28.5t-22.5 -20.5t-32.5 -8q-17 0 -34 9
t-34.5 19.5t-34.5 19.5t-34 9q-20 0 -31.5 -17t-15.5 -40h-29z" />
    <glyph glyph-name="odieresis" unicode="&#xf6;" horiz-adv-x="537" 
d="M32 257q0 55 15.5 103.5t45.5 85.5t74 58.5t101 21.5t101 -21.5t74 -58.5t45.5 -85.5t15.5 -103.5t-15.5 -104t-45.5 -85.5t-74 -58t-101 -21.5t-101 21.5t-74 58t-45.5 85.5t-15.5 104zM70 257q0 -46 13 -88.5t38 -75.5t62 -52.5t85 -19.5t85 19.5t62 52.5t38 75.5
t13 88.5t-13 88.5t-38 75.5t-62 52.5t-85 19.5t-85 -19.5t-62 -52.5t-38 -75.5t-13 -88.5zM325 603v103h44v-103h-44zM167 603v103h44v-103h-44z" />
    <glyph glyph-name="omacron" unicode="&#x14d;" horiz-adv-x="537" 
d="M32 257q0 55 15.5 103.5t45.5 85.5t74 58.5t101 21.5t101 -21.5t74 -58.5t45.5 -85.5t15.5 -103.5t-15.5 -104t-45.5 -85.5t-74 -58t-101 -21.5t-101 21.5t-74 58t-45.5 85.5t-15.5 104zM70 257q0 -46 13 -88.5t38 -75.5t62 -52.5t85 -19.5t85 19.5t62 52.5t38 75.5
t13 88.5t-13 88.5t-38 75.5t-62 52.5t-85 19.5t-85 -19.5t-62 -52.5t-38 -75.5t-13 -88.5zM147 638v33h242v-33h-242z" />
    <glyph glyph-name="obreve" unicode="&#x14f;" horiz-adv-x="537" 
d="M32 257q0 55 15.5 103.5t45.5 85.5t74 58.5t101 21.5t101 -21.5t74 -58.5t45.5 -85.5t15.5 -103.5t-15.5 -104t-45.5 -85.5t-74 -58t-101 -21.5t-101 21.5t-74 58t-45.5 85.5t-15.5 104zM70 257q0 -46 13 -88.5t38 -75.5t62 -52.5t85 -19.5t85 19.5t62 52.5t38 75.5
t13 88.5t-13 88.5t-38 75.5t-62 52.5t-85 19.5t-85 -19.5t-62 -52.5t-38 -75.5t-13 -88.5zM404 720q-3 -24 -14.5 -46t-29 -38.5t-40 -26t-47.5 -9.5q-57 0 -95 31.5t-45 88.5h33q6 -26 18 -43t26.5 -27t30.5 -13.5t31 -3.5q39 0 65.5 24t33.5 63h33z" />
    <glyph glyph-name="ohungarumlaut" unicode="&#x151;" horiz-adv-x="537" 
d="M32 257q0 55 15.5 103.5t45.5 85.5t74 58.5t101 21.5t101 -21.5t74 -58.5t45.5 -85.5t15.5 -103.5t-15.5 -104t-45.5 -85.5t-74 -58t-101 -21.5t-101 21.5t-74 58t-45.5 85.5t-15.5 104zM70 257q0 -46 13 -88.5t38 -75.5t62 -52.5t85 -19.5t85 19.5t62 52.5t38 75.5
t13 88.5t-13 88.5t-38 75.5t-62 52.5t-85 19.5t-85 -19.5t-62 -52.5t-38 -75.5t-13 -88.5zM320 590l120 140h51l-134 -140h-37zM162 590l120 140h51l-134 -140h-37z" />
    <glyph glyph-name="oslash" unicode="&#xf8;" horiz-adv-x="537" 
d="M455 428q49 -72 49 -171q0 -55 -15.5 -104t-45.5 -85.5t-74 -58t-101 -21.5q-54 0 -95 18.5t-70 50.5l-54 -57l-24 23l57 61q-50 71 -50 173q0 55 15.5 103.5t45.5 85.5t74 58.5t101 21.5q54 0 95.5 -19t70.5 -52l55 58l24 -23zM408 428q-23 29 -58.5 47t-81.5 18
q-48 0 -85 -19.5t-62 -52.5t-38 -75.5t-13 -88.5q0 -40 9.5 -77.5t29.5 -67.5zM129 84q25 -29 59.5 -46t79.5 -17q48 0 85 19.5t62 52.5t38 75.5t13 88.5q0 39 -9 75.5t-29 67.5z" />
    <glyph glyph-name="oslashacute" unicode="&#x1ff;" horiz-adv-x="537" 
d="M455 428q49 -72 49 -171q0 -55 -15.5 -104t-45.5 -85.5t-74 -58t-101 -21.5q-54 0 -95 18.5t-70 50.5l-54 -57l-24 23l57 61q-50 71 -50 173q0 55 15.5 103.5t45.5 85.5t74 58.5t101 21.5q54 0 95.5 -19t70.5 -52l55 58l24 -23zM408 428q-23 29 -58.5 47t-81.5 18
q-48 0 -85 -19.5t-62 -52.5t-38 -75.5t-13 -88.5q0 -40 9.5 -77.5t29.5 -67.5zM129 84q25 -29 59.5 -46t79.5 -17q48 0 85 19.5t62 52.5t38 75.5t13 88.5q0 39 -9 75.5t-29 67.5zM352 730h51l-134 -140h-37z" />
    <glyph glyph-name="oe" unicode="&#x153;" horiz-adv-x="889" 
d="M464 252q-3 -44 6 -86t31 -74t57.5 -51.5t86.5 -19.5q72 0 113 41t57 107h38q-18 -82 -69.5 -131.5t-138.5 -49.5q-81 0 -133.5 39.5t-66.5 111.5h-2q-20 -75 -67 -113t-125 -38q-61 0 -102.5 22t-67.5 58.5t-37.5 83.5t-11.5 98q0 55 13 105t40 88t69 60.5t100 22.5
q75 0 124.5 -40t65.5 -112h2q41 152 199 152q58 0 99.5 -23t67.5 -61t37 -87.5t8 -102.5h-393zM819 285q0 40 -11 78t-32.5 66.5t-54.5 46t-76 17.5q-46 0 -80.5 -17.5t-57 -46.5t-33.5 -66.5t-10 -77.5h355zM252 21q52 0 86 21.5t53.5 54.5t27 73.5t7.5 79.5q0 47 -8.5 91
t-29 77.5t-53.5 54t-82 20.5q-53 0 -88 -22t-56 -57.5t-30 -78.5t-9 -85q0 -45 10.5 -86.5t32.5 -73t56.5 -50.5t82.5 -19z" />
    <glyph glyph-name="racute" unicode="&#x155;" horiz-adv-x="278" 
d="M94 400h3q7 25 25.5 47t45 38t59 24.5t67.5 7.5v-38q-30 4 -68.5 -6t-73.5 -44q-14 -15 -24.5 -29t-17.5 -31t-11 -38t-5 -50v-281h-38v514h38v-114zM256 730h51l-134 -140h-37z" />
    <glyph glyph-name="rcaron" unicode="&#x159;" horiz-adv-x="278" 
d="M94 400h3q7 25 25.5 47t45 38t59 24.5t67.5 7.5v-38q-30 4 -68.5 -6t-73.5 -44q-14 -15 -24.5 -29t-17.5 -31t-11 -38t-5 -50v-281h-38v514h38v-114zM157 590l-115 140h38l97 -115l98 115h38l-116 -140h-40z" />
    <glyph glyph-name="rcommaaccent" unicode="&#x157;" horiz-adv-x="278" 
d="M94 400h3q7 25 25.5 47t45 38t59 24.5t67.5 7.5v-38q-30 4 -68.5 -6t-73.5 -44q-14 -15 -24.5 -29t-17.5 -31t-11 -38t-5 -50v-281h-38v514h38v-114zM40 -176q13 3 21 10.5t10 22.5h-25v93h57v-80q0 -61 -63 -66v20z" />
    <glyph glyph-name="sacute" unicode="&#x15b;" horiz-adv-x="481" 
d="M74 171q2 -36 16 -63.5t36.5 -47t52.5 -29.5t65 -10q25 0 53.5 4.5t53 16.5t40.5 33.5t16 54.5q0 43 -26 65t-65.5 34t-85 19.5t-85 22.5t-65.5 42.5t-26 80.5q0 38 17 63.5t43.5 40.5t59.5 21.5t66 6.5q40 0 75 -9t60.5 -29t40 -51t14.5 -75h-38q0 35 -11.5 60t-32 40.5
t-48.5 23t-60 7.5q-26 0 -52.5 -5t-47.5 -17t-34.5 -31t-13.5 -46q0 -31 15 -50t39.5 -30.5t55 -18.5t61.5 -14q38 -7 71.5 -16.5t58 -26t38.5 -42.5t14 -66q0 -42 -19 -69t-48 -43.5t-64.5 -23t-69.5 -6.5q-44 0 -81.5 11.5t-65.5 35t-44 57.5t-17 79h38zM327 730h51
l-134 -140h-37z" />
    <glyph glyph-name="scircumflex" unicode="&#x15d;" horiz-adv-x="481" 
d="M74 171q2 -36 16 -63.5t36.5 -47t52.5 -29.5t65 -10q25 0 53.5 4.5t53 16.5t40.5 33.5t16 54.5q0 43 -26 65t-65.5 34t-85 19.5t-85 22.5t-65.5 42.5t-26 80.5q0 38 17 63.5t43.5 40.5t59.5 21.5t66 6.5q40 0 75 -9t60.5 -29t40 -51t14.5 -75h-38q0 35 -11.5 60t-32 40.5
t-48.5 23t-60 7.5q-26 0 -52.5 -5t-47.5 -17t-34.5 -31t-13.5 -46q0 -31 15 -50t39.5 -30.5t55 -18.5t61.5 -14q38 -7 71.5 -16.5t58 -26t38.5 -42.5t14 -66q0 -42 -19 -69t-48 -43.5t-64.5 -23t-69.5 -6.5q-44 0 -81.5 11.5t-65.5 35t-44 57.5t-17 79h38zM263 730l116 -140
h-38l-98 115l-97 -115h-38l115 140h40z" />
    <glyph glyph-name="scaron" unicode="&#x161;" horiz-adv-x="481" 
d="M74 171q2 -36 16 -63.5t36.5 -47t52.5 -29.5t65 -10q25 0 53.5 4.5t53 16.5t40.5 33.5t16 54.5q0 43 -26 65t-65.5 34t-85 19.5t-85 22.5t-65.5 42.5t-26 80.5q0 38 17 63.5t43.5 40.5t59.5 21.5t66 6.5q40 0 75 -9t60.5 -29t40 -51t14.5 -75h-38q0 35 -11.5 60t-32 40.5
t-48.5 23t-60 7.5q-26 0 -52.5 -5t-47.5 -17t-34.5 -31t-13.5 -46q0 -31 15 -50t39.5 -30.5t55 -18.5t61.5 -14q38 -7 71.5 -16.5t58 -26t38.5 -42.5t14 -66q0 -42 -19 -69t-48 -43.5t-64.5 -23t-69.5 -6.5q-44 0 -81.5 11.5t-65.5 35t-44 57.5t-17 79h38zM223 590l-115 140
h38l97 -115l98 115h38l-116 -140h-40z" />
    <glyph glyph-name="scedilla" unicode="&#x15f;" horiz-adv-x="481" 
d="M74 171q2 -36 16 -63.5t36.5 -47t52.5 -29.5t65 -10q25 0 53.5 4.5t53 16.5t40.5 33.5t16 54.5q0 43 -26 65t-65.5 34t-85 19.5t-85 22.5t-65.5 42.5t-26 80.5q0 38 17 63.5t43.5 40.5t59.5 21.5t66 6.5q40 0 75 -9t60.5 -29t40 -51t14.5 -75h-38q0 35 -11.5 60t-32 40.5
t-48.5 23t-60 7.5q-26 0 -52.5 -5t-47.5 -17t-34.5 -31t-13.5 -46q0 -31 15 -50t39.5 -30.5t55 -18.5t61.5 -14q38 -7 71.5 -16.5t58 -26t38.5 -42.5t14 -66q0 -41 -18 -67.5t-46 -43t-62.5 -23.5t-67.5 -8l-37 -44l1 -1q17 7 38 7q31 0 52.5 -16.5t21.5 -50.5
q0 -40 -28 -59.5t-70 -19.5q-29 0 -51 7t-41 18l11 24q17 -9 36.5 -15.5t43.5 -6.5q27 0 44 13t17 37q0 19 -14.5 31t-37.5 12q-14 0 -26 -3.5t-23 -8.5l-16 13l47 64q-39 3 -72 16t-57.5 36t-38.5 55.5t-15 74.5h38z" />
    <glyph glyph-name="scommaaccent" unicode="&#x219;" horiz-adv-x="481" 
d="M74 171q2 -36 16 -63.5t36.5 -47t52.5 -29.5t65 -10q25 0 53.5 4.5t53 16.5t40.5 33.5t16 54.5q0 43 -26 65t-65.5 34t-85 19.5t-85 22.5t-65.5 42.5t-26 80.5q0 38 17 63.5t43.5 40.5t59.5 21.5t66 6.5q40 0 75 -9t60.5 -29t40 -51t14.5 -75h-38q0 35 -11.5 60t-32 40.5
t-48.5 23t-60 7.5q-26 0 -52.5 -5t-47.5 -17t-34.5 -31t-13.5 -46q0 -31 15 -50t39.5 -30.5t55 -18.5t61.5 -14q38 -7 71.5 -16.5t58 -26t38.5 -42.5t14 -66q0 -42 -19 -69t-48 -43.5t-64.5 -23t-69.5 -6.5q-44 0 -81.5 11.5t-65.5 35t-44 57.5t-17 79h38zM215 -176
q13 3 21 10.5t10 22.5h-25v93h57v-80q0 -61 -63 -66v20z" />
    <glyph glyph-name="germandbls" unicode="&#xdf;" horiz-adv-x="500" 
d="M207 412q36 0 69 8t58.5 26t40.5 46t15 68q0 33 -12 58t-32.5 41.5t-47.5 25t-58 8.5q-76 0 -110 -42t-34 -114v-537h-38v537q0 91 44 140t138 49q39 0 73.5 -10t60 -31t40 -52t14.5 -73q0 -63 -28 -103t-91 -54v-2q78 -9 116 -59t38 -128q0 -73 -23 -115.5t-55 -64.5
t-66.5 -28t-56.5 -6h-55v33h38q22 0 52.5 5t59 23.5t48.5 54.5t20 98q0 49 -17 81t-46 51t-69 26t-86 7v33z" />
    <glyph glyph-name="tcaron" unicode="&#x165;" horiz-adv-x="259" 
d="M273 714h51l-87 -140h-29zM245 481h-112v-359q0 -31 7 -49t21.5 -27.5t35 -11.5t47.5 -1v-33q-29 -2 -56.5 0.5t-48.5 15t-33.5 37.5t-10.5 69v359h-95v33h95v160h38v-160h112v-33z" />
    <glyph glyph-name="tcommaaccent" unicode="&#x163;" horiz-adv-x="259" 
d="M245 481h-112v-359q0 -31 7 -49t21.5 -27.5t35 -11.5t47.5 -1v-33q-20 -1 -38.5 -1t-35.5 4l-51 -59l1 -1q17 7 38 7q31 0 52.5 -16.5t21.5 -50.5q0 -40 -28 -59.5t-70 -19.5q-29 0 -51 7t-41 18l11 24q17 -9 36.5 -15.5t43.5 -6.5q27 0 44 13t17 37q0 19 -14.5 31
t-37.5 12q-14 0 -26 -3.5t-23 -8.5l-16 13l66 88q-23 12 -36.5 37.5t-11.5 71.5v359h-95v33h95v160h38v-160h112v-33z" />
    <glyph glyph-name="uni021B" unicode="&#x21b;" horiz-adv-x="259" 
d="M245 481h-112v-359q0 -28 6 -45.5t17.5 -27.5t28.5 -13.5t39 -3.5q5 0 10 0.5t10 0.5v-33q-7 -1 -13.5 -1h-13.5q-24 0 -46 4.5t-39 17t-27 34.5t-10 57v10v359h-95v33h95v160h38v-160h112v-33zM128 -176q13 3 21 10.5t10 22.5h-25v93h57v-80q0 -61 -63 -66v20z" />
    <glyph glyph-name="tbar" unicode="&#x167;" horiz-adv-x="259" 
d="M95 354v127h-95v33h95v160h38v-160h112v-33h-112v-127h102v-31h-102v-201q0 -31 7 -49t21.5 -27.5t35 -11.5t47.5 -1v-33q-29 -2 -56.5 0.5t-48.5 15t-33.5 37.5t-10.5 69v201h-87v31h87z" />
    <glyph glyph-name="thorn" unicode="&#xfe;" horiz-adv-x="556" 
d="M65 714h38v-318h2q6 19 20 42t37 42.5t55.5 32.5t74.5 13q59 0 102.5 -22t72 -59t42.5 -86t14 -103q0 -59 -14 -108t-42.5 -84.5t-72 -55.5t-102.5 -20q-64 0 -114 28t-73 91h-2v-291h-38v898zM292 21q50 0 86.5 19t60 51t35 74.5t11.5 90.5q0 44 -11 86.5t-34 76
t-59.5 54t-88.5 20.5q-51 0 -87 -20t-58.5 -53t-32.5 -75.5t-10 -88.5t9 -88.5t30.5 -75t58 -52t90.5 -19.5z" />
    <glyph glyph-name="ugrave" unicode="&#xf9;" 
d="M463 0h-38v110h-2q-10 -29 -28.5 -51.5t-43 -38.5t-53.5 -24t-59 -8q-45 0 -76.5 11t-51.5 29t-31.5 40.5t-16.5 45.5t-6 44.5t-1 37.5v318h38v-325q0 -20 3 -48.5t17.5 -55t43.5 -45.5t82 -19q43 0 77.5 16t58.5 44.5t36.5 68t12.5 86.5v278h38v-514zM259 590l-134 140
h51l120 -140h-37z" />
    <glyph glyph-name="uacute" unicode="&#xfa;" 
d="M463 0h-38v110h-2q-10 -29 -28.5 -51.5t-43 -38.5t-53.5 -24t-59 -8q-45 0 -76.5 11t-51.5 29t-31.5 40.5t-16.5 45.5t-6 44.5t-1 37.5v318h38v-325q0 -20 3 -48.5t17.5 -55t43.5 -45.5t82 -19q43 0 77.5 16t58.5 44.5t36.5 68t12.5 86.5v278h38v-514zM343 730h51
l-134 -140h-37z" />
    <glyph glyph-name="ucircumflex" unicode="&#xfb;" 
d="M463 0h-38v110h-2q-10 -29 -28.5 -51.5t-43 -38.5t-53.5 -24t-59 -8q-45 0 -76.5 11t-51.5 29t-31.5 40.5t-16.5 45.5t-6 44.5t-1 37.5v318h38v-325q0 -20 3 -48.5t17.5 -55t43.5 -45.5t82 -19q43 0 77.5 16t58.5 44.5t36.5 68t12.5 86.5v278h38v-514zM279 730l116 -140
h-38l-98 115l-97 -115h-38l115 140h40z" />
    <glyph glyph-name="utilde" unicode="&#x169;" 
d="M463 0h-38v110h-2q-10 -29 -28.5 -51.5t-43 -38.5t-53.5 -24t-59 -8q-45 0 -76.5 11t-51.5 29t-31.5 40.5t-16.5 45.5t-6 44.5t-1 37.5v318h38v-325q0 -20 3 -48.5t17.5 -55t43.5 -45.5t82 -19q43 0 77.5 16t58.5 44.5t36.5 68t12.5 86.5v278h38v-514zM114 609
q1 16 7 32.5t15.5 29t23.5 20.5t32 8q19 0 37 -9t35 -19.5t33.5 -19.5t31.5 -9q21 0 32 18.5t13 38.5h29q-2 -17 -7 -33t-14 -28.5t-22.5 -20.5t-32.5 -8q-17 0 -34 9t-34.5 19.5t-34.5 19.5t-34 9q-20 0 -31.5 -17t-15.5 -40h-29z" />
    <glyph glyph-name="udieresis" unicode="&#xfc;" 
d="M463 0h-38v110h-2q-10 -29 -28.5 -51.5t-43 -38.5t-53.5 -24t-59 -8q-45 0 -76.5 11t-51.5 29t-31.5 40.5t-16.5 45.5t-6 44.5t-1 37.5v318h38v-325q0 -20 3 -48.5t17.5 -55t43.5 -45.5t82 -19q43 0 77.5 16t58.5 44.5t36.5 68t12.5 86.5v278h38v-514zM316 603v103h44
v-103h-44zM158 603v103h44v-103h-44z" />
    <glyph glyph-name="umacron" unicode="&#x16b;" 
d="M463 0h-38v110h-2q-10 -29 -28.5 -51.5t-43 -38.5t-53.5 -24t-59 -8q-45 0 -76.5 11t-51.5 29t-31.5 40.5t-16.5 45.5t-6 44.5t-1 37.5v318h38v-325q0 -20 3 -48.5t17.5 -55t43.5 -45.5t82 -19q43 0 77.5 16t58.5 44.5t36.5 68t12.5 86.5v278h38v-514zM138 638v33h242
v-33h-242z" />
    <glyph glyph-name="ubreve" unicode="&#x16d;" 
d="M463 0h-38v110h-2q-10 -29 -28.5 -51.5t-43 -38.5t-53.5 -24t-59 -8q-45 0 -76.5 11t-51.5 29t-31.5 40.5t-16.5 45.5t-6 44.5t-1 37.5v318h38v-325q0 -20 3 -48.5t17.5 -55t43.5 -45.5t82 -19q43 0 77.5 16t58.5 44.5t36.5 68t12.5 86.5v278h38v-514zM395 720
q-3 -24 -14.5 -46t-29 -38.5t-40 -26t-47.5 -9.5q-57 0 -95 31.5t-45 88.5h33q6 -26 18 -43t26.5 -27t30.5 -13.5t31 -3.5q39 0 65.5 24t33.5 63h33z" />
    <glyph glyph-name="uring" unicode="&#x16f;" 
d="M463 0h-38v110h-2q-10 -29 -28.5 -51.5t-43 -38.5t-53.5 -24t-59 -8q-45 0 -76.5 11t-51.5 29t-31.5 40.5t-16.5 45.5t-6 44.5t-1 37.5v318h38v-325q0 -20 3 -48.5t17.5 -55t43.5 -45.5t82 -19q43 0 77.5 16t58.5 44.5t36.5 68t12.5 86.5v278h38v-514zM160 670
q0 42 28.5 70.5t70.5 28.5t70.5 -28.5t28.5 -70.5t-28.5 -70.5t-70.5 -28.5t-70.5 28.5t-28.5 70.5zM187 670q0 -30 21 -51t51 -21t51 21t21 51t-21 51t-51 21t-51 -21t-21 -51z" />
    <glyph glyph-name="uhungarumlaut" unicode="&#x171;" 
d="M463 0h-38v110h-2q-10 -29 -28.5 -51.5t-43 -38.5t-53.5 -24t-59 -8q-45 0 -76.5 11t-51.5 29t-31.5 40.5t-16.5 45.5t-6 44.5t-1 37.5v318h38v-325q0 -20 3 -48.5t17.5 -55t43.5 -45.5t82 -19q43 0 77.5 16t58.5 44.5t36.5 68t12.5 86.5v278h38v-514zM311 590l120 140
h51l-134 -140h-37zM153 590l120 140h51l-134 -140h-37z" />
    <glyph glyph-name="uogonek" unicode="&#x173;" 
d="M425 110h-2q-10 -29 -28.5 -51.5t-43 -38.5t-53.5 -24t-59 -8q-45 0 -76.5 11t-51.5 29t-31.5 40.5t-16.5 45.5t-6 44.5t-1 37.5v318h38v-325q0 -20 3 -48.5t17.5 -55t43.5 -45.5t82 -19q43 0 77.5 16t58.5 44.5t36.5 68t12.5 86.5v278h38v-514h-11q-25 -22 -41 -39
t-25 -31.5t-12.5 -26.5t-3.5 -24q0 -20 12.5 -31t30.5 -11q19 0 32 7.5t26 27.5l23 -8q-25 -60 -86 -60q-37 0 -59.5 16.5t-22.5 51.5q0 12 4 25.5t15 29t30.5 33.5t49.5 39v111z" />
    <glyph glyph-name="wacute" unicode="&#x1e83;" horiz-adv-x="704" 
d="M184 44h2l140 470h51l141 -470h2l144 470h42l-165 -514h-47l-141 466h-2l-142 -466h-48l-163 514h41zM436 730h51l-134 -140h-37z" />
    <glyph glyph-name="wcircumflex" unicode="&#x175;" horiz-adv-x="704" 
d="M184 44h2l140 470h51l141 -470h2l144 470h42l-165 -514h-47l-141 466h-2l-142 -466h-48l-163 514h41zM372 730l116 -140h-38l-98 115l-97 -115h-38l115 140h40z" />
    <glyph glyph-name="wdieresis" unicode="&#x1e85;" horiz-adv-x="704" 
d="M184 44h2l140 470h51l141 -470h2l144 470h42l-165 -514h-47l-141 466h-2l-142 -466h-48l-163 514h41zM409 603v103h44v-103h-44zM251 603v103h44v-103h-44z" />
    <glyph glyph-name="wgrave" unicode="&#x1e81;" horiz-adv-x="704" 
d="M184 44h2l140 470h51l141 -470h2l144 470h42l-165 -514h-47l-141 466h-2l-142 -466h-48l-163 514h41zM352 590l-134 140h51l120 -140h-37z" />
    <glyph glyph-name="yacute" unicode="&#xfd;" horiz-adv-x="444" 
d="M-6 514h45l191 -469l176 469h43l-220 -569q-16 -38 -29.5 -65.5t-30.5 -40.5q-20 -16 -47.5 -19.5t-72.5 -3.5v33q41 0 64 6.5t43 26.5q11 11 23 40.5t30 80.5zM313 730h51l-134 -140h-37z" />
    <glyph glyph-name="ycircumflex" unicode="&#x177;" horiz-adv-x="444" 
d="M-6 514h45l191 -469l176 469h43l-220 -569q-16 -38 -29.5 -65.5t-30.5 -40.5q-20 -16 -47.5 -19.5t-72.5 -3.5v33q41 0 64 6.5t43 26.5q11 11 23 40.5t30 80.5zM249 730l116 -140h-38l-98 115l-97 -115h-38l115 140h40z" />
    <glyph glyph-name="ydieresis" unicode="&#xff;" horiz-adv-x="444" 
d="M-6 514h45l191 -469l176 469h43l-220 -569q-16 -38 -29.5 -65.5t-30.5 -40.5q-20 -16 -47.5 -19.5t-72.5 -3.5v33q41 0 64 6.5t43 26.5q11 11 23 40.5t30 80.5zM286 603v103h44v-103h-44zM128 603v103h44v-103h-44z" />
    <glyph glyph-name="ygrave" unicode="&#x1ef3;" horiz-adv-x="444" 
d="M-6 514h45l191 -469l176 469h43l-220 -569q-16 -38 -29.5 -65.5t-30.5 -40.5q-20 -16 -47.5 -19.5t-72.5 -3.5v33q41 0 64 6.5t43 26.5q11 11 23 40.5t30 80.5zM229 590l-134 140h51l120 -140h-37z" />
    <glyph glyph-name="zacute" unicode="&#x17a;" horiz-adv-x="426" 
d="M417 33v-33h-408v36l345 445h-318v33h365v-36l-346 -445h362zM300 730h51l-134 -140h-37z" />
    <glyph glyph-name="zcaron" unicode="&#x17e;" horiz-adv-x="426" 
d="M417 33v-33h-408v36l345 445h-318v33h365v-36l-346 -445h362zM196 590l-115 140h38l97 -115l98 115h38l-116 -140h-40z" />
    <glyph glyph-name="zdotaccent" unicode="&#x17c;" horiz-adv-x="426" 
d="M417 33v-33h-408v36l345 445h-318v33h365v-36l-346 -445h362zM194 603v103h44v-103h-44z" />
    <glyph glyph-name="f_f_l" unicode="&#xfb04;" horiz-adv-x="596" 
d="M130 481v-481h-38v481h-92v33h92v106q0 27 9 46.5t24.5 31.5t36 18t43.5 6q17 0 45 -5v-33q-28 5 -45 5q-32 0 -53.5 -14.5t-21.5 -57.5v-103h169v106q0 27 9 46.5t24.5 31.5t36 18t43.5 6q17 0 45 -5v-33q-28 5 -45 5q-32 0 -53.5 -14.5t-21.5 -57.5v-103h107v-33h-107
v-481h-38v481h-169zM531 714v-714h-38v714h38z" />
    <glyph glyph-name="grave.cap" unicode="&#xe000;" horiz-adv-x="167" 
d="M104 780l-134 140h51l120 -140h-37z" />
    <glyph glyph-name="acute" unicode="&#xb4;" horiz-adv-x="167" 
d="M146 730h51l-134 -140h-37z" />
    <glyph glyph-name="acute.cap" unicode="&#xe002;" horiz-adv-x="167" 
d="M146 920h51l-134 -140h-37z" />
    <glyph glyph-name="circumflex" unicode="&#x2c6;" horiz-adv-x="167" 
d="M103 730l116 -140h-38l-98 115l-97 -115h-38l115 140h40z" />
    <glyph glyph-name="circumflex.cap" unicode="&#xe004;" horiz-adv-x="167" 
d="M103 915l116 -125h-38l-98 100l-97 -100h-38l115 125h40z" />
    <glyph glyph-name="caron" unicode="&#x2c7;" horiz-adv-x="167" 
d="M63 590l-115 140h38l97 -115l98 115h38l-116 -140h-40z" />
    <glyph glyph-name="caron.cap" unicode="&#xe006;" horiz-adv-x="167" 
d="M63 780l-115 140h38l97 -115l98 115h38l-116 -140h-40z" />
    <glyph glyph-name="caron.alt" unicode="&#xe008;" horiz-adv-x="167" 
d="M96 714h51l-87 -140h-29z" />
    <glyph glyph-name="tilde" unicode="&#x2dc;" horiz-adv-x="167" 
d="M-61 609q1 16 7 32.5t15.5 29t23.5 20.5t32 8q19 0 37 -9t35 -19.5t33.5 -19.5t31.5 -9q21 0 32 18.5t13 38.5h29q-2 -17 -7 -33t-14 -28.5t-22.5 -20.5t-32.5 -8q-17 0 -34 9t-34.5 19.5t-34.5 19.5t-34 9q-20 0 -31.5 -17t-15.5 -40h-29z" />
    <glyph glyph-name="tilde.cap" unicode="&#xe009;" horiz-adv-x="167" 
d="M-61 799q1 15 7 29t15.5 25.5t23.5 18.5t32 7q19 0 37 -7.5t35 -16.5t33.5 -17t31.5 -8q21 0 32 16t13 33h29q-2 -15 -7 -29t-14 -25.5t-22.5 -18.5t-32.5 -7q-17 0 -34 7.5t-34.5 16.5t-34.5 16.5t-34 7.5q-20 0 -31.5 -14t-15.5 -34h-29z" />
    <glyph glyph-name="dieresis" unicode="&#xa8;" horiz-adv-x="167" 
d="M140 603v103h44v-103h-44zM-18 603v103h44v-103h-44z" />
    <glyph glyph-name="dieresis.cap" unicode="&#xe00b;" horiz-adv-x="167" 
d="M140 793v103h44v-103h-44zM-18 793v103h44v-103h-44z" />
    <glyph glyph-name="macron" unicode="&#xaf;" horiz-adv-x="167" 
d="M-37 638v33h242v-33h-242z" />
    <glyph glyph-name="macron.cap" unicode="&#xe00d;" horiz-adv-x="167" 
d="M-37 828v33h242v-33h-242z" />
    <glyph glyph-name="uni02C9" unicode="&#x2c9;" horiz-adv-x="167" 
d="M-37 638v33h242v-33h-242z" />
    <glyph glyph-name="breve" unicode="&#x2d8;" horiz-adv-x="167" 
d="M219 720q-3 -24 -14.5 -46t-29 -38.5t-40 -26t-47.5 -9.5q-57 0 -95 31.5t-45 88.5h33q6 -26 18 -43t26.5 -27t30.5 -13.5t31 -3.5q39 0 65.5 24t33.5 63h33z" />
    <glyph glyph-name="breve.cap" unicode="&#xe00f;" horiz-adv-x="167" 
d="M219 910q-3 -24 -14.5 -46t-29 -38.5t-40 -26t-47.5 -9.5q-57 0 -95 31.5t-45 88.5h33q6 -26 18 -43t26.5 -27t30.5 -13.5t31 -3.5q39 0 65.5 24t33.5 63h33z" />
    <glyph glyph-name="ring" unicode="&#x2da;" horiz-adv-x="167" 
d="M-16 670q0 42 28.5 70.5t70.5 28.5t70.5 -28.5t28.5 -70.5t-28.5 -70.5t-70.5 -28.5t-70.5 28.5t-28.5 70.5zM11 670q0 -30 21 -51t51 -21t51 21t21 51t-21 51t-51 21t-51 -21t-21 -51z" />
    <glyph glyph-name="ring.cap" unicode="&#xe011;" horiz-adv-x="167" 
d="M-16 850q0 42 28.5 70.5t70.5 28.5t70.5 -28.5t28.5 -70.5t-28.5 -70.5t-70.5 -28.5t-70.5 28.5t-28.5 70.5zM11 850q0 -30 21 -51t51 -21t51 21t21 51t-21 51t-51 21t-51 -21t-21 -51z" />
    <glyph glyph-name="hungarumlaut" unicode="&#x2dd;" horiz-adv-x="167" 
d="M102 590l120 140h51l-134 -140h-37zM-56 590l120 140h51l-134 -140h-37z" />
    <glyph glyph-name="hungarumlaut.cap" unicode="&#xe013;" horiz-adv-x="167" 
d="M102 780l120 140h51l-134 -140h-37zM-56 780l120 140h51l-134 -140h-37z" />
    <glyph glyph-name="dotaccent" unicode="&#x2d9;" horiz-adv-x="167" 
d="M61 603v103h44v-103h-44z" />
    <glyph glyph-name="dotaccent.cap" unicode="&#xe015;" horiz-adv-x="167" 
d="M61 793v103h44v-103h-44z" />
    <glyph glyph-name="cedilla" unicode="&#xb8;" horiz-adv-x="167" 
d="M117 0l-48 -56l1 -1q17 7 38 7q31 0 52.5 -16.5t21.5 -50.5q0 -40 -28 -59.5t-70 -19.5q-29 0 -51 7t-41 18l11 24q17 -9 36.5 -15.5t43.5 -6.5q27 0 44 13t17 37q0 19 -14.5 31t-37.5 12q-14 0 -26 -3.5t-23 -8.5l-16 13l56 75h34z" />
    <glyph glyph-name="ogonek" unicode="&#x2db;" horiz-adv-x="167" 
d="M132 0q-25 -22 -41 -39t-25 -31.5t-12.5 -26.5t-3.5 -24q0 -20 12.5 -31t30.5 -11q19 0 32 7.5t26 27.5l23 -8q-25 -60 -86 -60q-37 0 -59.5 16.5t-22.5 51.5q0 12 4 25t15 29t31 34.5t52 39.5h24z" />
    <glyph glyph-name="commaaccent" unicode="&#xe017;" horiz-adv-x="278" 
d="M113 -176q13 3 21 10.5t10 22.5h-25v93h57v-80q0 -61 -63 -66v20z" />
    <glyph glyph-name="commaaccent.alt" unicode="&#xe01a;" horiz-adv-x="278" 
d="M165 747q-13 -3 -21 -10.5t-10 -22.5h25v-93h-57v80q0 61 63 66v-20z" />
    <glyph glyph-name="ellipsis" unicode="&#x2026;" horiz-adv-x="1000" 
d="M807 103h51v-103h-51v103zM474 103h51v-103h-51v103zM141 103h51v-103h-51v103z" />
    <glyph glyph-name="uni00AD" unicode="&#xad;" horiz-adv-x="352" 
d="M69 253v38h214v-38h-214z" />
    <glyph glyph-name="exclamdown" unicode="&#xa1;" horiz-adv-x="259" 
d="M155 535v-103h-51v103h51zM105 -184v241l12 290h24l12 -290v-241h-48z" />
    <glyph glyph-name="questiondown" unicode="&#xbf;" 
d="M287 432h-51v103h51v-103zM475 42q0 -53 -14.5 -97t-42.5 -75.5t-69.5 -48.5t-95.5 -17q-40 0 -75.5 11t-62.5 33t-42.5 56t-15.5 79q0 32 7.5 56.5t20 44t28.5 36t33 33.5q17 15 34.5 31.5t31.5 39.5t23 54.5t9 75.5h38q0 -40 -7 -70.5t-19 -54.5t-28 -43.5t-34 -36.5
t-36 -35.5t-32 -38.5t-22.5 -43t-8.5 -49q0 -37 13.5 -63.5t36 -44t51.5 -25.5t60 -8q45 0 79 15t56.5 42t34 63.5t11.5 79.5h38z" />
    <glyph glyph-name="quoteleft" unicode="&#x2018;" horiz-adv-x="204" 
d="M143 681q-11 -5 -17.5 -16.5t-10.5 -25t-5 -27.5t-1 -24h21v-103h-51v103q0 20 3 39.5t10.5 36.5t20 30t30.5 20v-33z" />
    <glyph glyph-name="quoteright" unicode="&#x2019;" horiz-adv-x="204" 
d="M125 611q0 -20 -3 -39.5t-10.5 -36.5t-20 -30t-30.5 -20v33q11 5 17.5 16.5t10.5 25t5 27.5t1 24h-21v103h51v-103z" />
    <glyph glyph-name="quotedblleft" unicode="&#x201c;" horiz-adv-x="315" 
d="M254 681q-11 -5 -17.5 -16.5t-10.5 -25t-5 -27.5t-1 -24h21v-103h-51v103q0 20 3 39.5t10.5 36.5t20 30t30.5 20v-33zM128 681q-11 -5 -17.5 -16.5t-10.5 -25t-5 -27.5t-1 -24h21v-103h-51v103q0 20 3 39.5t10.5 36.5t20 30t30.5 20v-33z" />
    <glyph glyph-name="quotedblright" unicode="&#x201d;" horiz-adv-x="315" 
d="M251 611q0 -20 -3 -39.5t-10.5 -36.5t-20 -30t-30.5 -20v33q11 5 17.5 16.5t10.5 25t5 27.5t1 24h-21v103h51v-103zM125 611q0 -20 -3 -39.5t-10.5 -36.5t-20 -30t-30.5 -20v33q11 5 17.5 16.5t10.5 25t5 27.5t1 24h-21v103h51v-103z" />
    <glyph glyph-name="quotesinglbase" unicode="&#x201a;" horiz-adv-x="204" 
d="M125 0q0 -20 -3 -39.5t-10.5 -36.5t-20 -30t-30.5 -20v33q11 5 17.5 16.5t10.5 25t5 27.5t1 24h-21v103h51v-103z" />
    <glyph glyph-name="quotedblbase" unicode="&#x201e;" horiz-adv-x="315" 
d="M251 0q0 -20 -3 -39.5t-10.5 -36.5t-20 -30t-30.5 -20v33q11 5 17.5 16.5t10.5 25t5 27.5t1 24h-21v103h51v-103zM125 0q0 -20 -3 -39.5t-10.5 -36.5t-20 -30t-30.5 -20v33q11 5 17.5 16.5t10.5 25t5 27.5t1 24h-21v103h51v-103z" />
    <glyph glyph-name="guilsinglleft" unicode="&#x2039;" horiz-adv-x="259" 
d="M67 252v40l114 131v-51l-85 -100l85 -102v-49z" />
    <glyph glyph-name="guilsinglright" unicode="&#x203a;" horiz-adv-x="259" 
d="M78 170l85 102l-85 100v51l114 -131v-40l-114 -131v49z" />
    <glyph glyph-name="guillemotleft" unicode="&#xab;" horiz-adv-x="389" 
d="M195 252v40l114 131v-51l-85 -100l85 -102v-49zM67 252v40l114 131v-51l-85 -100l85 -102v-49z" />
    <glyph glyph-name="guillemotright" unicode="&#xbb;" horiz-adv-x="389" 
d="M208 170l85 102l-85 100v51l114 -131v-40l-114 -131v49zM80 170l85 102l-85 100v51l114 -131v-40l-114 -131v49z" />
    <glyph glyph-name="endash" unicode="&#x2013;" horiz-adv-x="500" 
d="M0 291h500v-38h-500v38z" />
    <glyph glyph-name="emdash" unicode="&#x2014;" horiz-adv-x="1000" 
d="M130 291h740v-38h-740v38z" />
    <glyph glyph-name="bullet" unicode="&#x2022;" horiz-adv-x="500" 
d="M72 357q0 37 14 69.5t38 56.5t56.5 38t69.5 14t69.5 -14t57 -38t38.5 -56.5t14 -69.5t-14 -69.5t-38.5 -57t-57 -38.5t-69.5 -14t-69.5 14t-56.5 38.5t-38 57t-14 69.5z" />
    <glyph glyph-name="periodcentered" unicode="&#xb7;" horiz-adv-x="278" 
d="M85 317q0 21 16.5 37.5t37.5 16.5t38 -16t17 -38t-16.5 -38.5t-38.5 -16.5t-38 17t-16 38z" />
    <glyph glyph-name="uni2219" unicode="&#x2219;" horiz-adv-x="278" 
d="M85 317q0 21 16.5 37.5t37.5 16.5t38 -16t17 -38t-16.5 -38.5t-38.5 -16.5t-38 17t-16 38z" />
    <glyph glyph-name="dagger" unicode="&#x2020;" horiz-adv-x="556" 
d="M259 514v200h38v-200h205v-33h-205v-627h-38v627h-205v33h205z" />
    <glyph glyph-name="daggerdbl" unicode="&#x2021;" horiz-adv-x="556" 
d="M297 714v-200h205v-33h-205v-394h205v-33h-205v-200h-38v200h-205v33h205v394h-205v33h205v200h38z" />
    <glyph glyph-name="section" unicode="&#xa7;" horiz-adv-x="556" 
d="M411 536q1 30 -7.5 59.5t-26 52t-43.5 36.5t-59 14q-22 1 -44.5 -6t-41 -21t-30.5 -34t-12 -44q0 -46 26.5 -77.5t65.5 -56t85 -46t85.5 -48.5t66 -63t27.5 -89q0 -58 -31.5 -90.5t-79.5 -45.5q30 -28 43.5 -54t13.5 -69q0 -38 -13.5 -64t-36.5 -42.5t-53.5 -24
t-64.5 -7.5q-44 0 -77.5 14.5t-57 40t-35.5 61t-12 77.5h38q1 -33 10 -62t26.5 -51t44 -34.5t62.5 -12.5q60 0 95.5 25t35.5 80q0 33 -15.5 58.5t-41 46.5t-58 39t-65.5 36q-38 22 -71 42.5t-58 44t-38.5 51.5t-11.5 65q0 24 9 45t24.5 38t35.5 30t42 21q-17 12 -28.5 29.5
t-17.5 35t-8 33t0 24.5q0 31 14 57t37.5 44.5t53 28t61.5 8.5q87 0 130 -53t44 -142h-38zM187 449q-18 -7 -35 -17.5t-31 -24.5t-22.5 -31.5t-8.5 -38.5q0 -26 10 -46t26 -36.5t35 -29t37 -23.5q42 -25 82.5 -50t82.5 -51q4 -1 12 1.5t17.5 8t19.5 12t18 12.5q15 14 25 34
t10 44q0 26 -12 47.5t-30.5 39.5t-40.5 32.5t-43 26.5z" />
    <glyph glyph-name="paragraph" unicode="&#xb6;" horiz-adv-x="600" 
d="M273 324q-44 0 -82 15.5t-65.5 42t-43.5 62t-16 74.5q0 97 58.5 146.5t164.5 49.5h217v-860h-38v827h-157v-827h-38v470z" />
    <glyph glyph-name="brokenbar" unicode="&#xa6;" horiz-adv-x="222" 
d="M92 661h38v-250h-38v250zM92 161h38v-250h-38v250z" />
    <glyph glyph-name="copyright" unicode="&#xa9;" horiz-adv-x="800" 
d="M400 731q78 0 146 -29.5t118.5 -80t80 -118.5t29.5 -146t-29.5 -146t-80 -118.5t-118.5 -80t-146 -29.5t-146 29.5t-118.5 80t-80 118.5t-29.5 146t29.5 146t80 118.5t118.5 80t146 29.5zM401 698q-72 0 -134 -26t-107 -72t-70.5 -108t-25.5 -134q0 -71 26 -133.5
t71 -109t106.5 -73t133.5 -26.5t133 27t106 73.5t70.5 108.5t25.5 133q0 72 -25.5 134t-70 107.5t-106 72t-133.5 26.5zM561 438q-11 57 -52.5 89.5t-99.5 32.5q-44 0 -78.5 -15t-58.5 -42t-36.5 -64t-12.5 -80q0 -42 13 -79.5t37.5 -65.5t59 -44.5t78.5 -16.5
q61 0 98.5 35.5t51.5 92.5h38q-5 -36 -21.5 -66t-41 -51t-57 -32.5t-68.5 -11.5q-51 0 -93 18t-71.5 50t-45.5 75.5t-16 94.5t15.5 94.5t44.5 74.5t70 48.5t93 17.5q36 0 68.5 -10t58 -30t42.5 -49t22 -66h-38z" />
    <glyph glyph-name="registered" unicode="&#xae;" horiz-adv-x="800" 
d="M400 731q78 0 146 -29.5t118.5 -80t80 -118.5t29.5 -146t-29.5 -146t-80 -118.5t-118.5 -80t-146 -29.5t-146 29.5t-118.5 80t-80 118.5t-29.5 146t29.5 146t80 118.5t118.5 80t146 29.5zM401 698q-72 0 -134 -26t-107 -72t-70.5 -108.5t-25.5 -134.5q0 -71 26 -133
t71 -108.5t106.5 -73t133.5 -26.5t133 27t106 73.5t70.5 108.5t25.5 133q0 72 -25.5 134t-70 107.5t-106 72t-133.5 26.5zM264 578h166q75 0 109.5 -31t34.5 -91q0 -27 -9 -47.5t-24.5 -34.5t-36 -23t-44.5 -12l132 -203h-42l-133 204h-115v-204h-38v442zM302 373h94
q25 0 50 2.5t45 11t32.5 25t12.5 45.5q0 25 -10 42t-26 27.5t-36 14.5t-40 4h-122v-172z" />
    <glyph glyph-name="trademark" unicode="&#x2122;" horiz-adv-x="990" 
d="M694 368l152 346h59v-412h-32v379h-3l-167 -379h-18l-167 379h-3v-379h-32v412h59zM404 681h-143v-379h-32v379h-144v33h319v-33z" />
    <glyph glyph-name="currency" unicode="&#xa4;" horiz-adv-x="556" 
d="M492 104l-53 54q-35 -31 -77 -46t-85 -15t-84 15t-76 46l-55 -56l-27 27l56 55q-30 35 -45 76.5t-16 84.5q0 43 15 84.5t46 76.5l-57 56l27 27l56 -56q35 29 76 44t84 16q43 0 85 -15t77 -46l54 55l27 -27l-55 -54q31 -35 46 -76.5t15 -84.5t-15 -84.5t-46 -75.5l54 -54z
M278 135q41 0 78 16.5t65 45t44.5 66.5t16.5 82q0 43 -16.5 81.5t-44.5 67t-65 45t-78 16.5t-78 -16.5t-65 -45t-44.5 -67t-16.5 -81.5q0 -44 16.5 -82t44.5 -66.5t65 -45t78 -16.5z" />
    <glyph glyph-name="Euro" unicode="&#x20ac;" horiz-adv-x="556" 
d="M509 557q-10 33 -28.5 53.5t-35.5 31.5q-28 18 -56 22.5t-52 4.5q-11 0 -28 -1t-37 -6.5t-42 -16.5t-42 -32q-17 -17 -29.5 -39.5t-21.5 -47t-14 -49.5t-7 -47h332l-15 -33h-320q-1 -13 -1.5 -25.5t-0.5 -24.5t0.5 -23.5t1.5 -22.5h283l-15 -33h-264q4 -39 17 -82t37 -78
q20 -30 43 -47.5t45.5 -26t43.5 -11t38 -2.5q23 0 48 4t48 13q20 8 42 22.5t43 38.5v-46q-14 -13 -30.5 -24t-38.5 -19q-26 -11 -57 -16.5t-60 -5.5q-64 0 -114 25t-83 73q-27 38 -42.5 87t-19.5 95h-65l15 33h48q-5 51 0 96h-63l15 33h50q2 27 8.5 56.5t17.5 58t28 54.5
t40 46t46.5 31.5t45.5 17t41 7t33 1.5q31 0 64 -5.5t63 -24.5q18 -11 36 -29.5t30 -47.5z" />
    <glyph glyph-name="cent" unicode="&#xa2;" horiz-adv-x="556" 
d="M272 -12q-59 3 -100.5 26.5t-68.5 61t-39.5 85.5t-12.5 101q0 52 14.5 98.5t42.5 82.5t69.5 58t94.5 25v89h32v-89q39 -2 73 -13.5t59.5 -32.5t42 -52.5t20.5 -72.5h-38q-5 64 -48 98.5t-109 39.5v-472q66 6 109 50t53 110h38q-12 -88 -67 -137.5t-133 -55.5v-106h-32
v106zM272 493q-45 -3 -79 -23.5t-57 -53t-35 -72.5t-12 -82q0 -50 11.5 -93t34 -75t57 -51t80.5 -22v472z" />
    <glyph glyph-name="sterling" unicode="&#xa3;" horiz-adv-x="556" 
d="M50 363h60q-23 42 -41.5 85t-18.5 91q0 47 18.5 83t50 60t72.5 36.5t86 12.5q118 0 178 -61t57 -186h-38q-1 103 -47 156t-149 53q-88 0 -139 -40t-51 -112q0 -27 6.5 -51t16.5 -45.5t21.5 -42t20.5 -39.5h160v-33h-141q10 -15 16.5 -42.5t6.5 -65.5q0 -29 -8.5 -56
t-22 -52t-31.5 -46t-37 -37l2 -2q22 15 45 25.5t49 10.5q31 0 56 -7t48 -16q23 -8 45 -14.5t46 -6.5q45 0 76 21t59 47l22 -33q-29 -31 -67.5 -52t-83.5 -21q-31 0 -57 7t-51 15q-24 8 -47.5 15t-48.5 7q-38 0 -63.5 -12.5t-56.5 -31.5l-25 34q21 20 41.5 42.5t36 48
t25.5 54.5t10 62q0 30 -8 58t-21 48h-78v33z" />
    <glyph glyph-name="florin" unicode="&#x192;" horiz-adv-x="556" 
d="M12 -141q13 -2 25 -3.5t25 -1.5q43 0 68.5 38.5t36.5 99.5l79 404h-112l7 33h111l33 169q5 25 15.5 49t28 43t43 30t60.5 11q14 0 29 -1t32 -5l-8 -38q-32 6 -54 6q-37 0 -65.5 -22.5t-39.5 -77.5l-32 -164h120l-5 -33h-121l-80 -409q-4 -21 -12 -50.5t-24.5 -56.5
t-44 -45.5t-69.5 -18.5q-25 0 -53 6z" />
    <glyph glyph-name="yen" unicode="&#xa5;" horiz-adv-x="556" 
d="M41 714l238 -374l239 374h45l-238 -372h92v-33h-120v-78h120v-33h-120v-198h-38v198h-120v33h120v78h-120v33h92l-238 372h48z" />
    <glyph glyph-name="ordfeminine" unicode="&#xaa;" horiz-adv-x="310" 
d="M29 596q12 106 132 106q23 0 45 -3.5t39 -13.5t27 -26.5t10 -41.5v-178q0 -14 2 -25.5t16 -11.5h7q3 0 11 2v-27q-5 -1 -10 -1.5t-10 -0.5q-29 0 -37 13t-8 32v14h-2q-9 -27 -40.5 -47.5t-82.5 -20.5q-25 0 -46 4.5t-36.5 15.5t-24 29.5t-8.5 46.5q0 29 11.5 46.5t29 28
t39.5 14.5t43 6q41 3 64 6.5t34.5 10t14 18t2.5 30.5q0 26 -25.5 39.5t-67.5 13.5t-68 -20.5t-29 -58.5h-32zM250 554q-7 -8 -20 -12t-29 -6t-34 -3t-34 -3q-42 -5 -65 -20.5t-23 -47.5q0 -29 21 -49t59 -20q42 0 67 14t38 32t16.5 35.5t3.5 23.5v56z" />
    <glyph glyph-name="ordmasculine" unicode="&#xba;" horiz-adv-x="334" 
d="M167 366q-38 0 -67.5 12.5t-49.5 35t-30.5 53.5t-10.5 67t10.5 66.5t30.5 53t49.5 35.5t67.5 13t67.5 -13t49.5 -35.5t30.5 -53t10.5 -66.5t-10.5 -67t-30.5 -53.5t-49.5 -35t-67.5 -12.5zM167 393q33 0 56.5 11.5t39 31t23 45t7.5 53.5t-7.5 53.5t-23 45t-39 31
t-56.5 11.5t-56.5 -11.5t-39 -31t-23 -45t-7.5 -53.5t7.5 -53.5t23 -45t39 -31t56.5 -11.5z" />
    <glyph glyph-name="onesuperior" unicode="&#xb9;" horiz-adv-x="360" 
d="M66 736q41 6 75 25.5t51 58.5h27v-423h-34v362q-17 -17 -47 -33t-72 -20v30z" />
    <glyph glyph-name="twosuperior" unicode="&#xb2;" horiz-adv-x="360" 
d="M47 686q0 67 36.5 105t102.5 38q57 0 92.5 -32t35.5 -90q0 -45 -23 -76t-59 -54l-61 -40q-45 -29 -67 -53t-27 -56h236v-31h-273q0 32 9 56.5t25 44t38 36t47 32.5l56 36q30 20 47.5 45.5t17.5 60.5q0 42 -26 66.5t-68 24.5q-54 0 -79.5 -31t-25.5 -82h-34z" />
    <glyph glyph-name="threesuperior" unicode="&#xb3;" horiz-adv-x="360" 
d="M150 636h31q36 0 64.5 19.5t28.5 60.5t-24 62t-67 21q-51 0 -76 -27.5t-27 -74.5h-34q1 59 36.5 95.5t101.5 36.5q57 0 90.5 -30t33.5 -82q0 -35 -21 -60t-56 -34q45 -6 69.5 -35t24.5 -71q0 -32 -11.5 -56t-31 -40t-46.5 -24.5t-57 -8.5q-67 0 -105 36.5t-38 102.5h34
q0 -54 28.5 -81.5t79.5 -27.5q47 0 80 24t33 74q0 42 -29 65.5t-81 23.5h-31v31z" />
    <glyph glyph-name="fraction" unicode="&#x2044;" horiz-adv-x="167" 
d="M296 714h40l-465 -738h-40z" />
    <glyph glyph-name="uni2215" unicode="&#x2215;" horiz-adv-x="167" 
d="M296 714h40l-465 -738h-40z" />
    <glyph glyph-name="onehalf" unicode="&#xbd;" horiz-adv-x="834" 
d="M580 714h40l-465 -738h-40zM58 613q41 6 75 25.5t51 58.5h27v-423h-34v362q-17 -17 -47 -33t-72 -20v30zM494 289q0 67 36.5 105t102.5 38q57 0 92.5 -32t35.5 -90q0 -45 -23 -76t-59 -54l-61 -40q-45 -29 -67 -53t-27 -56h236v-31h-273q0 32 9 56.5t25 44t38 36t47 32.5
l56 36q30 20 47.5 45.5t17.5 60.5q0 42 -26 66.5t-68 24.5q-54 0 -79.5 -31t-25.5 -82h-34z" />
    <glyph glyph-name="onethird" unicode="&#x2153;" horiz-adv-x="834" 
d="M575 714h40l-465 -738h-40zM58 613q41 6 75 25.5t51 58.5h27v-423h-34v362q-17 -17 -47 -33t-72 -20v30zM591 239h31q36 0 64.5 19.5t28.5 60.5t-24 62t-67 21q-51 0 -76 -27.5t-27 -74.5h-34q1 59 36.5 95.5t101.5 36.5q57 0 90.5 -30t33.5 -82q0 -35 -21 -60t-56 -34
q45 -6 69.5 -35t24.5 -71q0 -32 -11.5 -56t-31 -40t-46.5 -24.5t-57 -8.5q-67 0 -105 36.5t-38 102.5h34q0 -54 28.5 -81.5t79.5 -27.5q47 0 80 24t33 74q0 42 -29 65.5t-81 23.5h-31v31z" />
    <glyph glyph-name="onequarter" unicode="&#xbc;" horiz-adv-x="834" 
d="M594 714h40l-465 -738h-40zM58 613q41 6 75 25.5t51 58.5h27v-423h-34v362q-17 -17 -47 -33t-72 -20v30zM650 101h-215v31l218 291h31v-291h68v-31h-68v-101h-34v101zM469 132h181v240z" />
    <glyph glyph-name="oneeighth" unicode="&#x215b;" horiz-adv-x="834" 
d="M574 714h40l-465 -738h-40zM58 613q41 6 75 25.5t51 58.5h27v-423h-34v362q-17 -17 -47 -33t-72 -20v30zM735 324q0 -34 -18.5 -57.5t-50.5 -34.5q45 -12 67 -41.5t22 -71.5q0 -62 -41.5 -95t-104.5 -33q-68 0 -107.5 32.5t-39.5 95.5q0 42 23 71t65 40
q-32 11 -50.5 34.5t-18.5 59.5q0 47 34.5 77.5t92.5 30.5q59 0 93 -29t34 -79zM609 244q41 0 66.5 20.5t25.5 59.5q0 35 -23 56.5t-69 21.5t-70 -21.5t-24 -56.5q0 -42 26.5 -61t67.5 -19zM609 21q52 0 82 24.5t30 73.5q0 45 -29.5 70t-82.5 25q-56 0 -84.5 -25t-28.5 -70
q0 -48 30.5 -73t82.5 -25z" />
    <glyph glyph-name="twothirds" unicode="&#x2154;" horiz-adv-x="834" 
d="M642 714h40l-465 -738h-40zM62 563q0 67 36.5 105t102.5 38q57 0 92.5 -32t35.5 -90q0 -45 -23 -76t-59 -54l-61 -40q-45 -29 -67 -53t-27 -56h236v-31h-273q0 32 9 56.5t25 44t38 36t47 32.5l56 36q30 20 47.5 45.5t17.5 60.5q0 42 -26 66.5t-68 24.5q-54 0 -79.5 -31
t-25.5 -82h-34zM608 239h31q36 0 64.5 19.5t28.5 60.5t-24 62t-67 21q-51 0 -76 -27.5t-27 -74.5h-34q1 59 36.5 95.5t101.5 36.5q57 0 90.5 -30t33.5 -82q0 -35 -21 -60t-56 -34q45 -6 69.5 -35t24.5 -71q0 -32 -11.5 -56t-31 -40t-46.5 -24.5t-57 -8.5q-67 0 -105 36.5
t-38 102.5h34q0 -54 28.5 -81.5t79.5 -27.5q47 0 80 24t33 74q0 42 -29 65.5t-81 23.5h-31v31z" />
    <glyph glyph-name="threequarters" unicode="&#xbe;" horiz-adv-x="834" 
d="M677 714h40l-465 -738h-40zM188 513h31q36 0 64.5 19.5t28.5 60.5t-24 62t-67 21q-51 0 -76 -27.5t-27 -74.5h-34q1 59 36.5 95.5t101.5 36.5q57 0 90.5 -30t33.5 -82q0 -35 -21 -60t-56 -34q45 -6 69.5 -35t24.5 -71q0 -32 -11.5 -56t-31 -40t-46.5 -24.5t-57 -8.5
q-67 0 -105 36.5t-38 102.5h34q0 -54 28.5 -81.5t79.5 -27.5q47 0 80 24t33 74q0 42 -29 65.5t-81 23.5h-31v31zM671 101h-215v31l218 291h31v-291h68v-31h-68v-101h-34v101zM490 132h181v240z" />
    <glyph glyph-name="threeeighths" unicode="&#x215c;" horiz-adv-x="834" 
d="M629 714h40l-465 -738h-40zM173 513h31q36 0 64.5 19.5t28.5 60.5t-24 62t-67 21q-51 0 -76 -27.5t-27 -74.5h-34q1 59 36.5 95.5t101.5 36.5q57 0 90.5 -30t33.5 -82q0 -35 -21 -60t-56 -34q45 -6 69.5 -35t24.5 -71q0 -32 -11.5 -56t-31 -40t-46.5 -24.5t-57 -8.5
q-67 0 -105 36.5t-38 102.5h34q0 -54 28.5 -81.5t79.5 -27.5q47 0 80 24t33 74q0 42 -29 65.5t-81 23.5h-31v31zM745 324q0 -34 -18.5 -57.5t-50.5 -34.5q45 -12 67 -41.5t22 -71.5q0 -62 -41.5 -95t-104.5 -33q-68 0 -107.5 32.5t-39.5 95.5q0 42 23 71t65 40
q-32 11 -50.5 34.5t-18.5 59.5q0 47 34.5 77.5t92.5 30.5q59 0 93 -29t34 -79zM619 244q41 0 66.5 20.5t25.5 59.5q0 35 -23 56.5t-69 21.5t-70 -21.5t-24 -56.5q0 -42 26.5 -61t67.5 -19zM619 21q52 0 82 24.5t30 73.5q0 45 -29.5 70t-82.5 25q-56 0 -84.5 -25t-28.5 -70
q0 -48 30.5 -73t82.5 -25z" />
    <glyph glyph-name="fiveeighths" unicode="&#x215d;" horiz-adv-x="834" 
d="M629 714h40l-465 -738h-40zM141 666l-30 -149q18 19 44 29.5t55 10.5q69 0 104 -40t35 -103q0 -33 -11 -60.5t-30.5 -47t-46.5 -30.5t-59 -11q-63 0 -102.5 33.5t-40.5 96.5h34q2 -49 32 -74.5t78 -25.5q51 0 81.5 30.5t30.5 86.5q0 51 -27.5 83t-81.5 32q-64 0 -105 -50
h-30l43 220h214v-31h-187zM745 324q0 -34 -18.5 -57.5t-50.5 -34.5q45 -12 67 -41.5t22 -71.5q0 -62 -41.5 -95t-104.5 -33q-68 0 -107.5 32.5t-39.5 95.5q0 42 23 71t65 40q-32 11 -50.5 34.5t-18.5 59.5q0 47 34.5 77.5t92.5 30.5q59 0 93 -29t34 -79zM619 244
q41 0 66.5 20.5t25.5 59.5q0 35 -23 56.5t-69 21.5t-70 -21.5t-24 -56.5q0 -42 26.5 -61t67.5 -19zM619 21q52 0 82 24.5t30 73.5q0 45 -29.5 70t-82.5 25q-56 0 -84.5 -25t-28.5 -70q0 -48 30.5 -73t82.5 -25z" />
    <glyph glyph-name="seveneighths" unicode="&#x215e;" horiz-adv-x="834" 
d="M569 714h40l-465 -738h-40zM81 697h282v-30q-36 -34 -67.5 -76.5t-56 -92t-40.5 -105.5t-19 -119h-37q4 64 19 119t38.5 103.5t54.5 90t66 78.5h-240v32zM735 324q0 -34 -18.5 -57.5t-50.5 -34.5q45 -12 67 -41.5t22 -71.5q0 -62 -41.5 -95t-104.5 -33q-68 0 -107.5 32.5
t-39.5 95.5q0 42 23 71t65 40q-32 11 -50.5 34.5t-18.5 59.5q0 47 34.5 77.5t92.5 30.5q59 0 93 -29t34 -79zM609 244q41 0 66.5 20.5t25.5 59.5q0 35 -23 56.5t-69 21.5t-70 -21.5t-24 -56.5q0 -42 26.5 -61t67.5 -19zM609 21q52 0 82 24.5t30 73.5q0 45 -29.5 70t-82.5 25
q-56 0 -84.5 -25t-28.5 -70q0 -48 30.5 -73t82.5 -25z" />
    <glyph glyph-name="perthousand" unicode="&#x2030;" horiz-adv-x="1074" 
d="M570 714h40l-465 -738h-40zM193 702q36 0 64 -12.5t47.5 -35t29.5 -53t10 -66.5q0 -37 -10 -68.5t-29 -54t-47.5 -35.5t-64.5 -13q-77 0 -115 47.5t-38 123.5q0 36 11 66.5t31 53t48 35t63 12.5zM192 669q-57 0 -85.5 -38t-28.5 -96q0 -29 6.5 -54t20 -44t35 -29.5
t52.5 -10.5q28 0 49.5 10.5t35.5 29t21.5 44t7.5 54.5q0 27 -7.5 51.5t-22 43t-35.5 29t-49 10.5zM882 -12q-77 0 -114.5 47t-37.5 123q0 36 11 66.5t30.5 53t47.5 35.5t63 13q36 0 64 -13t47.5 -35.5t30 -53t10.5 -66.5q0 -75 -39.5 -122.5t-112.5 -47.5zM527 -12
q-78 0 -115.5 47t-37.5 123q0 36 11 66.5t31 53t48 35.5t63 13q36 0 64 -13t47.5 -35.5t29.5 -53t10 -66.5q0 -75 -39 -122.5t-112 -47.5zM882 21q28 0 49.5 10.5t35.5 29t21.5 43.5t7.5 54q0 27 -7.5 51.5t-22 43t-35.5 29.5t-49 11q-57 0 -85.5 -38.5t-28.5 -96.5
q0 -29 6.5 -54t20 -43.5t35 -29t52.5 -10.5zM525 21q28 0 49.5 10.5t36 29t22 43.5t7.5 54q0 27 -7.5 51.5t-22 43t-36 29.5t-49.5 11q-57 0 -85 -38.5t-28 -96.5q0 -29 6 -54t19.5 -43.5t35 -29t52.5 -10.5z" />
    <glyph glyph-name="minus" unicode="&#x2212;" horiz-adv-x="600" 
d="M48 233v38h504v-38h-504z" />
    <glyph glyph-name="plusminus" unicode="&#xb1;" horiz-adv-x="600" 
d="M281 504h38v-189h233v-38h-233v-189h-38v189h-233v38h233v189zM48 38h504v-38h-504v38z" />
    <glyph glyph-name="multiply" unicode="&#xd7;" horiz-adv-x="600" 
d="M273 252l-194 195l26 27l195 -195l194 195l27 -27l-194 -195l194 -194l-27 -27l-194 195l-195 -195l-26 27z" />
    <glyph glyph-name="divide" unicode="&#xf7;" horiz-adv-x="600" 
d="M250 452q0 22 15 37t36 15t36.5 -15t15.5 -37q0 -21 -15.5 -36t-36.5 -15t-36 15t-15 36zM48 233v38h504v-38h-504zM250 51q0 22 15 37t36 15t36.5 -15t15.5 -37q0 -21 -15.5 -36t-36.5 -15t-36 15t-15 36z" />
    <glyph glyph-name="notequal" unicode="&#x2260;" horiz-adv-x="600" 
d="M552 137h-301l-84 -137l-32 18l72 119h-159v38h182l96 156h-278v38h301l84 137l32 -18l-73 -119h160v-38h-183l-95 -156h278v-38z" />
    <glyph glyph-name="approxequal" unicode="&#x2248;" horiz-adv-x="600" 
d="M426 277q-33 0 -65.5 11t-64 24.5t-62 25t-60.5 11.5q-38 0 -60 -21t-38 -54l-33 8q18 43 48 73t83 30q33 0 65 -11.5t63.5 -25t62.5 -24.5t61 -11q38 0 60 21t38 56l33 -8q-9 -22 -20.5 -41t-27.5 -33.5t-36 -22.5t-47 -8zM426 110q-33 0 -65.5 11t-64 24.5t-62 25
t-60.5 11.5q-38 0 -60 -21t-38 -56l-33 8q9 22 20.5 41t27.5 33.5t36 22.5t47 8q33 0 65 -11.5t63.5 -25t62.5 -24.5t61 -11q38 0 60 21t38 54l33 -8q-18 -43 -48 -73t-83 -30z" />
    <glyph glyph-name="lessequal" unicode="&#x2264;" horiz-adv-x="600" 
d="M552 472l-466 -168l466 -170v-42l-504 189v46l504 187v-42zM48 38h503v-38h-503v38z" />
    <glyph glyph-name="greaterequal" unicode="&#x2265;" horiz-adv-x="600" 
d="M48 514l504 -187v-46l-504 -189v42l466 170l-466 168v42zM552 0h-503v38h503v-38z" />
    <glyph glyph-name="logicalnot" unicode="&#xac;" horiz-adv-x="600" 
d="M514 331h-466v38h504v-261h-38v223z" />
    <glyph glyph-name="Delta" unicode="&#x2206;" horiz-adv-x="593" 
d="M-12 0l287 714h48l282 -714h-617zM50 38h492l-241 633h-2z" />
    <glyph glyph-name="uni0394" unicode="&#x394;" horiz-adv-x="593" 
d="M-12 0l287 714h48l282 -714h-617zM50 38h492l-241 633h-2z" />
    <glyph glyph-name="Omega" unicode="&#x2126;" horiz-adv-x="741" 
d="M370 731q75 0 136.5 -27.5t105 -74.5t67.5 -109.5t24 -133.5q0 -119 -53 -204.5t-139 -140.5v-3h192v-38h-253v39q102 62 155 144.5t53 202.5q0 62 -20.5 118t-58 98t-91 66.5t-118.5 24.5q-64 0 -116.5 -23t-90.5 -64.5t-59 -97.5t-21 -122q0 -120 51.5 -202.5
t153.5 -144.5v-39h-249v38h185v3q-86 55 -136 139.5t-50 205.5q0 75 24.5 138t68.5 109t105 72t134 26z" />
    <glyph glyph-name="uni03A9" unicode="&#x3a9;" horiz-adv-x="741" 
d="M370 731q75 0 136.5 -27.5t105 -74.5t67.5 -109.5t24 -133.5q0 -119 -53 -204.5t-139 -140.5v-3h192v-38h-253v39q102 62 155 144.5t53 202.5q0 62 -20.5 118t-58 98t-91 66.5t-118.5 24.5q-64 0 -116.5 -23t-90.5 -64.5t-59 -97.5t-21 -122q0 -120 51.5 -202.5
t153.5 -144.5v-39h-249v38h185v3q-86 55 -136 139.5t-50 205.5q0 75 24.5 138t68.5 109t105 72t134 26z" />
    <glyph glyph-name="mu" unicode="&#xb5;" horiz-adv-x="528" 
d="M472 0h-38v110h-2q-10 -29 -28.5 -51.5t-43 -38.5t-53.5 -24t-59 -8q-57 0 -91 19t-54 49v-240h-38v698h38v-325q0 -20 3 -48.5t17.5 -55t43.5 -45.5t82 -19q43 0 77.5 16t58.5 44.5t36.5 68t12.5 86.5v278h38v-514z" />
    <glyph glyph-name="uni03BC" unicode="&#x3bc;" horiz-adv-x="528" 
d="M472 0h-38v110h-2q-10 -29 -28.5 -51.5t-43 -38.5t-53.5 -24t-59 -8q-57 0 -91 19t-54 49v-240h-38v698h38v-325q0 -20 3 -48.5t17.5 -55t43.5 -45.5t82 -19q43 0 77.5 16t58.5 44.5t36.5 68t12.5 86.5v278h38v-514z" />
    <glyph glyph-name="pi" unicode="&#x3c0;" horiz-adv-x="560" 
d="M135 0h-38v481h-85v33h528v-33h-91v-412q0 -42 38 -42q8 0 18 1t21 3v-32q-23 -5 -45 -5q-39 0 -54.5 17.5t-15.5 55.5v414h-276v-481z" />
    <glyph glyph-name="degree" unicode="&#xb0;" horiz-adv-x="400" 
d="M200 416q-30 0 -56 11t-45.5 30.5t-30.5 45.5t-11 56t11 56t30.5 45.5t45.5 30.5t56 11t56 -11t45.5 -30.5t30.5 -45.5t11 -56t-11 -56t-30.5 -45.5t-45.5 -30.5t-56 -11zM200 669q-23 0 -42 -9t-33 -24t-22 -35t-8 -42q0 -23 8 -43t22 -35t33 -23.5t42 -8.5
q22 0 41.5 8.5t33.5 23.5t22 35t8 43q0 22 -8 42t-22 35t-33.5 24t-41.5 9z" />
    <glyph glyph-name="afii61289" unicode="&#x2113;" horiz-adv-x="500" 
d="M396 35q-49 -49 -110 -49q-22 0 -42 6.5t-35 20.5t-24 36.5t-9 55.5v148l-60 -68h-2l-15 19l77 83v269q0 83 31.5 124t74.5 41q39 0 64.5 -30.5t25.5 -87.5q0 -72 -42 -154t-119 -170v-168q0 -29 7.5 -48t19.5 -29.5t26 -14.5t28 -4q22 0 44.5 9t43.5 30h2zM342 599
q0 44 -17.5 69.5t-42.5 25.5q-27 0 -49 -31.5t-22 -102.5v-246q62 74 96.5 148t34.5 137z" />
    <glyph glyph-name="estimated" unicode="&#x212e;" horiz-adv-x="760" 
d="M192 345v-236q77 -77 189 -77q81 0 142 37t110 120l46 -28q-30 -47 -61 -80t-66.5 -54.5t-77.5 -31.5t-93 -10q-77 0 -139 28t-106 76.5t-68 114.5t-24 141q0 76 24 142t68 114.5t106 76.5t139 28q75 0 137.5 -26.5t106.5 -74.5t69 -114.5t25 -145.5h-527zM572 393v189
q-83 78 -192 78q-110 0 -188 -78v-189h380z" />
    <glyph glyph-name="eng" unicode="&#x14b;" 
d="M425 325q0 19 -3 48t-17.5 55.5t-44 45.5t-81.5 19q-44 0 -78 -16t-58 -44.5t-36.5 -68t-12.5 -86.5v-278h-38v514h38v-110h2q10 29 28.5 51.5t43 38.5t53.5 24t59 8q45 0 76.5 -11t51.5 -29t31.5 -40.5t16.5 -45.5t6 -44.5t1 -37.5v-353q0 -80 -30.5 -114.5
t-107.5 -34.5q-10 0 -20 0.5t-21 1.5v34q10 -2 20 -2.5t17 -0.5q58 0 81 23.5t23 86.5v366z" />
    <glyph glyph-name="Eng" unicode="&#x14a;" horiz-adv-x="678" 
d="M571 -11l-462 671h-2v-660h-44v714h55l451 -655h2v655h44v-734q0 -90 -36.5 -127t-123.5 -37q-10 0 -22 0.5t-24 1.5v39q21 -3 39 -3q33 0 56 5.5t38 18.5t22 35.5t7 57.5v18z" />
    <glyph glyph-name="infinity" unicode="&#x221e;" horiz-adv-x="722" 
d="M675 246q0 -57 -33 -95t-93 -38q-29 0 -54.5 10.5t-48.5 26t-44 35t-41 37.5q-21 -18 -42 -37t-43.5 -35t-47.5 -26t-55 -10q-29 0 -52 10t-39.5 27t-25.5 41t-9 52q0 27 9 51t25 42t38.5 28.5t50.5 10.5t54 -11t50 -27.5t45.5 -36t41.5 -36.5q19 17 40.5 36.5t45.5 36
t49.5 27.5t52.5 11q28 0 51.5 -10t40 -27t25.5 -41t9 -52zM642 245q0 42 -24 70t-67 28q-22 0 -45 -10.5t-45 -25.5t-42 -32.5l-36 -31.5q17 -15 36 -32t40 -31.5t43.5 -24t46.5 -9.5q45 0 69 27t24 72zM338 243q-17 14 -37 31.5t-41.5 32.5t-44.5 25.5t-47 10.5
q-42 0 -65 -29.5t-23 -68.5q0 -43 24 -70.5t69 -27.5q24 0 46.5 9t43.5 23.5t40 31.5t35 32z" />
    <glyph glyph-name="partialdiff" unicode="&#x2202;" horiz-adv-x="463" 
d="M424 369q0 -34 -3 -75.5t-11.5 -84t-23.5 -82.5t-39 -71t-57.5 -49.5t-79.5 -18.5q-44 0 -78 20t-57.5 51.5t-35.5 71t-12 79.5q0 42 12 80t35.5 67t58 46.5t79.5 17.5q54 0 99 -27t77 -70q0 15 0.5 30.5t0.5 30.5q0 29 -3.5 63t-12 68t-22.5 65t-35 55t-50 38t-66 14
q-35 0 -61.5 -12.5t-53.5 -32.5l-20 26q30 24 62.5 38t71.5 14q68 0 111.5 -35t69 -88t35 -114.5t9.5 -114.5zM384 284q-31 42 -73.5 73.5t-97.5 31.5q-38 0 -66 -15.5t-46.5 -41t-28 -57.5t-9.5 -66q0 -32 9.5 -65.5t28 -61.5t46 -45.5t64.5 -17.5q48 0 80 27.5t51.5 68
t29 86.5t12.5 83z" />
    <glyph glyph-name="integral" unicode="&#x222b;" horiz-adv-x="534" 
d="M374 750q0 -12 -8 -19t-19 -7t-17 5t-10 10.5t-7 10.5t-9 5q-15 0 -24 -21.5t-13 -51.5t-5 -63t-1 -55v-24l1 -476q0 -19 0.5 -46.5t-1 -58.5t-6.5 -61.5t-16 -55t-30.5 -40t-48.5 -15.5q-16 0 -28.5 8.5t-12.5 25.5q0 10 8 17.5t18 7.5q7 0 12 -4t9.5 -9t9 -9t9.5 -4
q14 0 22 20.5t12.5 49.5t5.5 59.5t1 51.5v23v491q0 18 -1 45.5t0.5 57.5t6 60t15.5 54t29.5 39t48.5 15q17 0 33 -8t16 -28z" />
    <glyph glyph-name="radical" unicode="&#x221a;" horiz-adv-x="463" 
d="M252 -217h-32l-178 366l-44 -21l-13 27l73 36l173 -359l203 950h33z" />
    <glyph glyph-name="summation" unicode="&#x2211;" horiz-adv-x="593" 
d="M35 -214v32l338 471l-324 464v33h497v-35h-451l322 -462l-338 -468h479v-35h-523z" />
    <glyph glyph-name="product" unicode="&#x220f;" horiz-adv-x="704" 
d="M585 -214v965h-466v-965h-36v1000h538v-1000h-36z" />
    <glyph glyph-name="lozenge" unicode="&#x25ca;" horiz-adv-x="593" 
d="M311 -35h-30l-169 391l169 391h30l170 -391zM296 702l-148 -346l148 -346l148 346z" />
    <glyph glyph-name="f_i" unicode="&#xf001;" horiz-adv-x="389" 
d="M0 514h92v106q0 27 9 46.5t24.5 31.5t36 18t43.5 6q17 0 45 -5v-33q-28 5 -45 5q-32 0 -53.5 -14.5t-21.5 -57.5v-103h107v-33h-107v-481h-38v481h-92v33zM286 714h38v-103h-38v103zM286 514h38v-514h-38v514z" />
    <glyph glyph-name="f_l" unicode="&#xf002;" horiz-adv-x="389" 
d="M0 514h92v106q0 27 9 46.5t24.5 31.5t36 18t43.5 6q17 0 45 -5v-33q-28 5 -45 5q-32 0 -53.5 -14.5t-21.5 -57.5v-103h107v-33h-107v-481h-38v481h-92v33zM286 714h38v-714h-38v714z" />
    <glyph glyph-name="glyph417" horiz-adv-x="512" 
d="M512 718v-718h-512v718h512zM462 50v617h-412v-617h412zM225 234l-2 17q0 56 13 81q7 13 18 27.5t28 31.5q16 15 26 26.5t15 21t7 18t2 17.5q0 36 -22.5 60.5t-53.5 24.5t-53.5 -22t-28.5 -73l-50 8q7 72 44 104.5t91 32.5t89 -35.5t35 -95.5q0 -32 -12.5 -58.5
t-50.5 -61.5q-37 -33 -43 -52q-6 -20 -6 -72h-46zM222 117v67h56v-67h-56z" />
    <glyph glyph-name="uni2010" unicode="&#x2010;" horiz-adv-x="352" 
d="M69 253v38h214v-38h-214z" />
    <glyph glyph-name="afii00208" unicode="&#x2015;" horiz-adv-x="1000" 
d="M100 291h800v-38h-800v38z" />
    <glyph glyph-name="interrobang" unicode="&#x203d;" 
d="M278 714v-63q85 -4 134 -46.5t49 -115.5q0 -27 -8 -48.5t-21.5 -39.5t-30.5 -34t-35 -31q-28 -24 -45.5 -41.5t-27 -32t-13.5 -28.5t-5 -30l-1 -23h-36l-8 292v139q-74 -8 -110 -48t-39 -101h-38q3 81 49.5 129.5t137.5 56.5v65h48zM423 489q0 56 -39 88t-106 36v-140
l-9 -189q11 19 29 36.5t46 40.5q37 31 58 59t21 69zM231 0v103h51v-103h-51z" />
    <glyph glyph-name="zero.superior" unicode="&#x2070;" horiz-adv-x="360" 
d="M180 388q-45 0 -75 19.5t-47 50.5t-24 70.5t-7 79.5t7 79.5t24.5 71t47 51t74.5 19.5t75 -19.5t47 -50.5t24 -70.5t7 -79.5t-7 -79.5t-24.5 -71t-47 -51t-74.5 -19.5zM61 608q0 -32 5 -65.5t18.5 -61t36.5 -45.5t59 -18t59 17.5t36.5 45.5t18.5 61.5t5 66.5q0 31 -5 65
t-18.5 61.5t-36.5 45.5t-59 18t-59 -17.5t-36.5 -45.5t-18.5 -61.5t-5 -66.5z" />
    <glyph glyph-name="four.superior" unicode="&#x2074;" horiz-adv-x="360" 
d="M233 498h-215v31l218 291h31v-291h68v-31h-68v-101h-34v101zM52 529h181v240z" />
    <glyph glyph-name="five.superior" unicode="&#x2075;" horiz-adv-x="360" 
d="M113 789l-30 -149q18 19 44 29.5t55 10.5q69 0 104 -40t35 -103q0 -33 -11 -60.5t-30.5 -47t-46.5 -30.5t-59 -11q-63 0 -102.5 33.5t-40.5 96.5h34q2 -49 32 -74.5t78 -25.5q51 0 81.5 30.5t30.5 86.5q0 51 -27.5 83t-81.5 32q-64 0 -105 -50h-30l43 220h214v-31h-187z
" />
    <glyph glyph-name="six.superior" unicode="&#x2076;" horiz-adv-x="360" 
d="M286 730q-7 32 -30 50.5t-61 18.5q-35 0 -58.5 -15.5t-38.5 -43.5t-21.5 -65.5t-7.5 -82.5q17 37 50 57.5t76 20.5q63 0 100 -38t37 -101q0 -30 -9.5 -56.5t-28 -45.5t-45 -30t-60.5 -11q-76 0 -115 52.5t-39 153.5q0 48 9 91t28.5 75t50 50.5t73.5 18.5q54 0 85.5 -27
t39.5 -72h-35zM190 640q-26 0 -46.5 -8.5t-35 -23.5t-22.5 -34.5t-8 -40.5q0 -23 7 -44t21 -36.5t35 -25t48 -9.5q51 0 80 30t29 81q0 48 -27.5 79.5t-80.5 31.5z" />
    <glyph glyph-name="seven.superior" unicode="&#x2077;" horiz-adv-x="360" 
d="M41 820h282v-30q-36 -34 -67.5 -76.5t-56 -92t-40.5 -105.5t-19 -119h-37q4 64 19 119t38.5 103.5t54.5 90t66 78.5h-240v32z" />
    <glyph glyph-name="eight.superior" unicode="&#x2078;" horiz-adv-x="360" 
d="M306 721q0 -34 -18.5 -57.5t-50.5 -34.5q45 -12 67 -41.5t22 -71.5q0 -62 -41.5 -95t-104.5 -33q-68 0 -107.5 32.5t-39.5 95.5q0 42 23 71t65 40q-32 11 -50.5 34.5t-18.5 59.5q0 47 34.5 77.5t92.5 30.5q59 0 93 -29t34 -79zM180 641q41 0 66.5 20.5t25.5 59.5
q0 35 -23 56.5t-69 21.5t-70 -21.5t-24 -56.5q0 -42 26.5 -61t67.5 -19zM180 418q52 0 82 24.5t30 73.5q0 45 -29.5 70t-82.5 25q-56 0 -84.5 -25t-28.5 -70q0 -48 30.5 -73t82.5 -25z" />
    <glyph glyph-name="nine.superior" unicode="&#x2079;" horiz-adv-x="360" 
d="M74 487q6 -32 29.5 -50.5t61.5 -18.5q35 0 59 15.5t38.5 43.5t21 66t7.5 83q-17 -37 -50 -57t-76 -20q-63 0 -100 37t-37 99q0 30 10 56.5t28.5 46t45.5 30.5t61 11q76 0 114 -52t38 -153q0 -49 -8.5 -92t-28 -75t-50 -50.5t-74.5 -18.5q-54 0 -85.5 27t-39.5 72h35z
M170 579q25 0 46 8.5t35.5 23t22.5 34t8 40.5q0 23 -7 43.5t-20.5 36.5t-34 25t-47.5 9q-51 0 -81 -30.5t-30 -81.5q0 -48 27.5 -78t80.5 -30z" />
    <glyph glyph-name="plus.superior" unicode="&#x207a;" horiz-adv-x="390" 
d="M178 702h33v-137h144v-31h-144v-137h-33v137h-144v31h144v137z" />
    <glyph glyph-name="minus.superior" unicode="&#x207b;" horiz-adv-x="240" 
d="M207 579v-30h-175v30h175z" />
    <glyph glyph-name="equal.superior" unicode="&#x207c;" horiz-adv-x="390" 
d="M355 625v-31h-321v31h321zM355 507v-31h-321v31h321z" />
    <glyph glyph-name="parenleft.superior" unicode="&#x207d;" horiz-adv-x="180" 
d="M48 597q0 76 23.5 144t68.5 135h29q-46 -75 -65.5 -141.5t-19.5 -137.5q0 -36 4.5 -69t14.5 -67t26.5 -69t39.5 -74h-29q-45 65 -68.5 134t-23.5 145z" />
    <glyph glyph-name="parenright.superior" unicode="&#x207e;" horiz-adv-x="180" 
d="M132 597q0 -76 -23.5 -144t-68.5 -135h-29q46 75 65.5 141.5t19.5 137.5t-19.5 136t-65.5 143h29q45 -65 68.5 -134t23.5 -145z" />
    <glyph glyph-name="n.superior" unicode="&#x207f;" horiz-adv-x="360" 
d="M52 710h35v-55q15 30 42 47t66 17q58 0 85.5 -33t27.5 -81v-208h-35v199q0 41 -18.5 67.5t-65.5 26.5q-24 0 -43 -8.5t-32 -23t-20 -33t-7 -37.5v-191h-35v313z" />
    <glyph glyph-name="zero.inferior" unicode="&#x2080;" horiz-adv-x="360" 
d="M180 -178q-45 0 -75 19.5t-47 50.5t-24 70.5t-7 79.5t7 79.5t24.5 71t47 51t74.5 19.5t75 -19.5t47 -50.5t24 -70.5t7 -79.5t-7 -79.5t-24.5 -71t-47 -51t-74.5 -19.5zM61 42q0 -32 5 -65.5t18.5 -61t36.5 -45.5t59 -18t59 17.5t36.5 45.5t18.5 61.5t5 66.5q0 31 -5 65
t-18.5 61.5t-36.5 45.5t-59 18t-59 -17.5t-36.5 -45.5t-18.5 -61.5t-5 -66.5z" />
    <glyph glyph-name="one.inferior" unicode="&#x2081;" horiz-adv-x="360" 
d="M66 170q41 6 75 25.5t51 58.5h27v-423h-34v362q-17 -17 -47 -33t-72 -20v30z" />
    <glyph glyph-name="two.inferior" unicode="&#x2082;" horiz-adv-x="360" 
d="M47 120q0 67 36.5 105t102.5 38q57 0 92.5 -32t35.5 -90q0 -45 -23 -76t-59 -54l-61 -40q-45 -29 -67 -53t-27 -56h236v-31h-273q0 32 9 56.5t25 44t38 36t47 32.5l56 36q30 20 47.5 45.5t17.5 60.5q0 42 -26 66.5t-68 24.5q-54 0 -79.5 -31t-25.5 -82h-34z" />
    <glyph glyph-name="three.inferior" unicode="&#x2083;" horiz-adv-x="360" 
d="M150 70h31q36 0 64.5 19.5t28.5 60.5t-24 62t-67 21q-51 0 -76 -27.5t-27 -74.5h-34q1 59 36.5 95.5t101.5 36.5q57 0 90.5 -30t33.5 -82q0 -35 -21 -60t-56 -34q45 -6 69.5 -35t24.5 -71q0 -32 -11.5 -56t-31 -40t-46.5 -24.5t-57 -8.5q-67 0 -105 36.5t-38 102.5h34
q0 -54 28.5 -81.5t79.5 -27.5q47 0 80 24t33 74q0 42 -29 65.5t-81 23.5h-31v31z" />
    <glyph glyph-name="four.inferior" unicode="&#x2084;" horiz-adv-x="360" 
d="M233 -68h-215v31l218 291h31v-291h68v-31h-68v-101h-34v101zM52 -37h181v240z" />
    <glyph glyph-name="five.inferior" unicode="&#x2085;" horiz-adv-x="360" 
d="M113 223l-30 -149q18 19 44 29.5t55 10.5q69 0 104 -40t35 -103q0 -33 -11 -60.5t-30.5 -47t-46.5 -30.5t-59 -11q-63 0 -102.5 33.5t-40.5 96.5h34q2 -49 32 -74.5t78 -25.5q51 0 81.5 30.5t30.5 86.5q0 51 -27.5 83t-81.5 32q-64 0 -105 -50h-30l43 220h214v-31h-187z
" />
    <glyph glyph-name="six.inferior" unicode="&#x2086;" horiz-adv-x="360" 
d="M286 164q-7 32 -30 50.5t-61 18.5q-35 0 -58.5 -15.5t-38.5 -43.5t-21.5 -65.5t-7.5 -82.5q17 37 50 57.5t76 20.5q63 0 100 -38t37 -101q0 -30 -9.5 -56.5t-28 -45.5t-45 -30t-60.5 -11q-76 0 -115 52.5t-39 153.5q0 48 9 91t28.5 75t50 50.5t73.5 18.5q54 0 85.5 -27
t39.5 -72h-35zM190 74q-26 0 -46.5 -8.5t-35 -23.5t-22.5 -34.5t-8 -40.5q0 -23 7 -44t21 -36.5t35 -25t48 -9.5q51 0 80 30t29 81q0 48 -27.5 79.5t-80.5 31.5z" />
    <glyph glyph-name="seven.inferior" unicode="&#x2087;" horiz-adv-x="360" 
d="M41 254h282v-30q-36 -34 -67.5 -76.5t-56 -92t-40.5 -105.5t-19 -119h-37q4 64 19 119t38.5 103.5t54.5 90t66 78.5h-240v32z" />
    <glyph glyph-name="eight.inferior" unicode="&#x2088;" horiz-adv-x="360" 
d="M306 155q0 -34 -18.5 -57.5t-50.5 -34.5q45 -12 67 -41.5t22 -71.5q0 -62 -41.5 -95t-104.5 -33q-68 0 -107.5 32.5t-39.5 95.5q0 42 23 71t65 40q-32 11 -50.5 34.5t-18.5 59.5q0 47 34.5 77.5t92.5 30.5q59 0 93 -29t34 -79zM180 75q41 0 66.5 20.5t25.5 59.5
q0 35 -23 56.5t-69 21.5t-70 -21.5t-24 -56.5q0 -42 26.5 -61t67.5 -19zM180 -148q52 0 82 24.5t30 73.5q0 45 -29.5 70t-82.5 25q-56 0 -84.5 -25t-28.5 -70q0 -48 30.5 -73t82.5 -25z" />
    <glyph glyph-name="nine.inferior" unicode="&#x2089;" horiz-adv-x="360" 
d="M74 -79q6 -32 29.5 -50.5t61.5 -18.5q35 0 59 15.5t38.5 43.5t21 66t7.5 83q-17 -37 -50 -57t-76 -20q-63 0 -100 37t-37 99q0 30 10 56.5t28.5 46t45.5 30.5t61 11q76 0 114 -52t38 -153q0 -49 -8.5 -92t-28 -75t-50 -50.5t-74.5 -18.5q-54 0 -85.5 27t-39.5 72h35z
M170 13q25 0 46 8.5t35.5 23t22.5 34t8 40.5q0 23 -7 43.5t-20.5 36.5t-34 25t-47.5 9q-51 0 -81 -30.5t-30 -81.5q0 -48 27.5 -78t80.5 -30z" />
    <glyph glyph-name="plus.inferior" unicode="&#x208a;" horiz-adv-x="390" 
d="M178 136h33v-137h144v-31h-144v-137h-33v137h-144v31h144v137z" />
    <glyph glyph-name="minus.inferior" unicode="&#x208b;" horiz-adv-x="240" 
d="M207 13v-30h-175v30h175z" />
    <glyph glyph-name="equal.inferior" unicode="&#x208c;" horiz-adv-x="390" 
d="M355 59v-31h-321v31h321zM355 -59v-31h-321v31h321z" />
    <glyph glyph-name="parenleft.inferior" unicode="&#x208d;" horiz-adv-x="180" 
d="M48 31q0 76 23.5 144t68.5 135h29q-46 -75 -65.5 -141.5t-19.5 -137.5q0 -36 4.5 -69t14.5 -67t26.5 -69t39.5 -74h-29q-45 65 -68.5 134t-23.5 145z" />
    <glyph glyph-name="parenright.inferior" unicode="&#x208e;" horiz-adv-x="180" 
d="M132 31q0 -76 -23.5 -144t-68.5 -135h-29q46 75 65.5 141.5t19.5 137.5t-19.5 136t-65.5 143h29q45 -65 68.5 -134t23.5 -145z" />
    <glyph glyph-name="afii61248" unicode="&#x2105;" horiz-adv-x="824" 
d="M622 714h40l-465 -738h-40zM328 383q-9 -55 -43 -86.5t-90 -31.5q-40 0 -69 16t-47.5 45t-27.5 69.5t-9 90.5q0 49 9 89.5t28 69.5t48 45t69 16q60 0 92 -30.5t40 -96.5h-34q-12 97 -98 97q-32 0 -54.5 -14t-37 -39.5t-21.5 -60t-7 -76.5t7 -77t21 -60.5t36.5 -39.5
t54.5 -14q83 0 99 88h34zM629 -9q-45 0 -75 19.5t-47 50.5t-24 70.5t-7 79.5t7 79.5t24.5 71t47 51t74.5 19.5t75 -19.5t47 -50.5t24 -70.5t7 -79.5t-7 -79.5t-24.5 -71t-47 -51t-74.5 -19.5zM510 211q0 -32 5 -65.5t18.5 -61t36.5 -45.5t59 -18t59 17.5t36.5 45.5
t18.5 61.5t5 66.5q0 31 -5 65t-18.5 61.5t-36.5 45.5t-59 18t-59 -17.5t-36.5 -45.5t-18.5 -61.5t-5 -66.5z" />
    <glyph glyph-name="afii61352" unicode="&#x2116;" horiz-adv-x="950" 
d="M63 690h55l411 -631h2v631h44v-690h-52l-414 636h-2v-636h-44v690zM768 126q-32 0 -57 11t-42 30.5t-26 46t-9 57.5t9 57.5t26 46t42 30.5t57 11t57 -11t42 -30.5t26 -46t9 -57.5t-9 -57.5t-26 -46t-42 -30.5t-57 -11zM768 160q50 0 73.5 32t23.5 79q0 46 -23.5 78.5
t-73.5 32.5t-73.5 -32t-23.5 -79q0 -46 23.5 -78.5t73.5 -32.5zM636 0v40h274v-40h-274z" />
    <glyph glyph-name="published" unicode="&#x2117;" horiz-adv-x="800" 
d="M26 357q0 78 29.5 146t80 118.5t118.5 80t146 29.5t146 -29.5t118.5 -80t80 -118.5t29.5 -146t-29.5 -146t-80 -118.5t-118.5 -80t-146 -29.5t-146 29.5t-118.5 80t-80 118.5t-29.5 146zM401 698q-72 0 -134 -26t-107 -72t-70.5 -108t-25.5 -134q0 -71 26 -133.5t71 -109
t106.5 -73t133.5 -26.5t133 27t106 73.5t70.5 108.5t25.5 133q0 72 -25.5 134t-70 107.5t-106 72t-133.5 26.5zM309 136h-38v442h172q62 0 100 -32t38 -92t-38 -92t-100 -32h-134v-194zM440 363q48 0 75.5 23t27.5 68q0 42 -27.5 66.5t-75.5 24.5h-131v-182h131z" />
    <glyph glyph-name="uni0374" unicode="&#x374;" horiz-adv-x="220" 
d="M91 567h-33l72 163h48z" />
    <glyph glyph-name="uni0375" unicode="&#x375;" horiz-adv-x="220" 
d="M117 -33h33l-72 -163h-48z" />
    <glyph glyph-name="uni037E" unicode="&#x37e;" horiz-adv-x="278" 
d="M164 514v-103h-51v103h51zM100 -93q11 5 17.5 16.5t10.5 25t5 27.5t1 24h-21v103h51v-103q0 -20 -3 -39.5t-10.5 -36.5t-20 -30t-30.5 -20v33z" />
    <glyph glyph-name="tonos" unicode="&#x384;" horiz-adv-x="230" 
d="M146 730h50l-91 -140h-38z" />
    <glyph glyph-name="tonos.cap" unicode="&#xe01b;" horiz-adv-x="230" 
d="M146 714h50l-91 -140h-38z" />
    <glyph glyph-name="dieresistonos" unicode="&#x385;" horiz-adv-x="167" 
d="M122 730h50l-93 -143h-38zM181 603v103h44v-103h-44zM-18 603v103h44v-103h-44z" />
    <glyph glyph-name="Alphatonos" unicode="&#x386;" horiz-adv-x="603" 
d="M285 714h48l282 -714h-47l-90 229h-342l-91 -229h-47zM464 267l-153 404h-2l-159 -404h314zM97 714h50l-91 -140h-38z" />
    <glyph glyph-name="anoteleia" unicode="&#x387;" horiz-adv-x="278" 
d="M164 514v-103h-51v103h51z" />
    <glyph glyph-name="Epsilontonos" unicode="&#x388;" horiz-adv-x="697" 
d="M87 714h50l-91 -140h-38zM200 714h480v-38h-436v-286h410v-38h-410v-314h441v-38h-485v714z" />
    <glyph glyph-name="Etatonos" unicode="&#x389;" horiz-adv-x="807" 
d="M200 714h44v-324h456v324h44v-714h-44v352h-456v-352h-44v714zM87 714h50l-91 -140h-38z" />
    <glyph glyph-name="Iotatonos" unicode="&#x38a;" horiz-adv-x="307" 
d="M87 714h50l-91 -140h-38zM200 714h44v-714h-44v714z" />
    <glyph glyph-name="Omicrontonos" unicode="&#x38c;" horiz-adv-x="830" 
d="M87 714h50l-91 -140h-38zM799 357q0 -78 -23 -146.5t-66.5 -119t-106.5 -79.5t-143 -29t-143.5 29t-107 79.5t-66.5 119t-23 146.5t23 146.5t66.5 119t107 79.5t143.5 29t143 -29t106.5 -79.5t66.5 -119t23 -146.5zM164 357q0 -69 20 -130t58 -106.5t93 -72.5t125 -27
t124.5 27t92.5 72.5t58 106.5t20 130t-20 130t-58 106.5t-92.5 72.5t-124.5 27t-125 -27t-93 -72.5t-58 -106.5t-20 -130z" />
    <glyph glyph-name="Upsilontonos" unicode="&#x38e;" horiz-adv-x="769" 
d="M87 714h50l-91 -140h-38zM741 714h49l-287 -415v-299h-44v299l-285 415h50l258 -378z" />
    <glyph glyph-name="Omegatonos" unicode="&#x38f;" horiz-adv-x="830" 
d="M87 714h50l-91 -140h-38zM459 731q75 0 136.5 -27.5t105 -74.5t67.5 -109.5t24 -133.5q0 -119 -53 -204.5t-139 -140.5v-3h192v-38h-253v39q102 62 155 144.5t53 202.5q0 62 -20.5 118t-58 98t-91 66.5t-118.5 24.5q-64 0 -116.5 -23t-90.5 -64.5t-59 -97.5t-21 -122
q0 -120 51.5 -202.5t153.5 -144.5v-39h-249v38h185v3q-86 55 -136 139.5t-50 205.5q0 75 24.5 138t68.5 109t105 72t134 26z" />
    <glyph glyph-name="iotadieresistonos" unicode="&#x390;" horiz-adv-x="159" 
d="M93 89q0 -11 0.5 -22t4 -20t10.5 -14.5t20 -5.5q10 0 28 3v-32q-15 -4 -31 -4q-23 0 -36.5 6t-20.5 16t-9.5 23.5t-2.5 29.5v445h37v-425zM124 730h50l-93 -143h-38zM183 603v103h44v-103h-44zM-16 603v103h44v-103h-44z" />
    <glyph glyph-name="Alpha" unicode="&#x391;" horiz-adv-x="593" 
d="M275 714h48l282 -714h-47l-90 229h-342l-91 -229h-47zM454 267l-153 404h-2l-159 -404h314z" />
    <glyph glyph-name="Beta" unicode="&#x392;" horiz-adv-x="633" 
d="M63 714h286q64 0 107 -16t69 -42t37.5 -59.5t11.5 -67.5q0 -29 -10 -55t-28.5 -46t-44 -33.5t-56.5 -17.5l2 -2q7 1 33 -6t54.5 -26.5t51 -54t22.5 -88.5q0 -49 -18 -86t-50.5 -62.5t-78.5 -38.5t-102 -13h-286v714zM349 390q91 0 136 40.5t45 106.5q0 39 -15 65.5
t-40 43t-57.5 23.5t-68.5 7h-242v-286h242zM349 38q96 0 150.5 40.5t54.5 121.5q0 46 -19 75.5t-48.5 46.5t-66 23.5t-71.5 6.5h-242v-314h242z" />
    <glyph glyph-name="Gamma" unicode="&#x393;" horiz-adv-x="485" 
d="M63 714h436v-38h-392v-676h-44v714z" />
    <glyph glyph-name="Epsilon" unicode="&#x395;" horiz-adv-x="560" 
d="M63 714h480v-38h-436v-286h410v-38h-410v-314h441v-38h-485v714z" />
    <glyph glyph-name="Zeta" unicode="&#x396;" horiz-adv-x="530" 
d="M28 714h501v-38l-484 -638h493v-38h-539v38l482 638h-453v38z" />
    <glyph glyph-name="Eta" unicode="&#x397;" horiz-adv-x="670" 
d="M63 714h44v-324h456v324h44v-714h-44v352h-456v-352h-44v714z" />
    <glyph glyph-name="Theta" unicode="&#x398;" horiz-adv-x="729" 
d="M710 357q0 -78 -23 -146.5t-66.5 -119t-106.5 -79.5t-143 -29t-143.5 29t-107 79.5t-66.5 119t-23 146.5t23 146.5t66.5 119t107 79.5t143.5 29t143 -29t106.5 -79.5t66.5 -119t23 -146.5zM75 357q0 -69 20 -130t58 -106.5t93 -72.5t125 -27t124.5 27t92.5 72.5t58 106.5
t20 130t-20 130t-58 106.5t-92.5 72.5t-124.5 27t-125 -27t-93 -72.5t-58 -106.5t-20 -130zM194 380h344v-38h-344v38z" />
    <glyph glyph-name="Iota" unicode="&#x399;" horiz-adv-x="170" 
d="M63 714h44v-714h-44v714z" />
    <glyph glyph-name="Kappa" unicode="&#x39a;" horiz-adv-x="615" 
d="M63 714h44v-411l449 411h57l-326 -297l346 -417h-55l-323 387l-148 -135v-252h-44v714z" />
    <glyph glyph-name="Lambda" unicode="&#x39b;" horiz-adv-x="591" 
d="M301 671h-2l-258 -671h-47l281 714h48l276 -714h-47z" />
    <glyph glyph-name="Mu" unicode="&#x39c;" horiz-adv-x="801" 
d="M63 714h63l279 -665h2l276 665h63v-714h-44v660h-2l-272 -660h-44l-275 660h-2v-660h-44v714z" />
    <glyph glyph-name="Nu" unicode="&#x39d;" horiz-adv-x="670" 
d="M63 714h55l451 -655h2v655h44v-714h-52l-454 660h-2v-660h-44v714z" />
    <glyph glyph-name="Xi" unicode="&#x39e;" horiz-adv-x="552" 
d="M58 714h441v-38h-441v38zM92 389h373v-38h-373v38zM48 38h461v-38h-461v38z" />
    <glyph glyph-name="Omicron" unicode="&#x39f;" horiz-adv-x="741" 
d="M710 357q0 -78 -23 -146.5t-66.5 -119t-106.5 -79.5t-143 -29t-143.5 29t-107 79.5t-66.5 119t-23 146.5t23 146.5t66.5 119t107 79.5t143.5 29t143 -29t106.5 -79.5t66.5 -119t23 -146.5zM75 357q0 -69 20 -130t58 -106.5t93 -72.5t125 -27t124.5 27t92.5 72.5t58 106.5
t20 130t-20 130t-58 106.5t-92.5 72.5t-124.5 27t-125 -27t-93 -72.5t-58 -106.5t-20 -130z" />
    <glyph glyph-name="Pi" unicode="&#x3a0;" horiz-adv-x="654" 
d="M64 714h532v-714h-45v676h-443v-676h-44v714z" />
    <glyph glyph-name="Rho" unicode="&#x3a1;" horiz-adv-x="596" 
d="M63 714h304q30 0 66.5 -7t68 -28.5t52.5 -61t21 -103.5q0 -94 -58 -145t-166 -51h-244v-318h-44v714zM107 356h251q48 0 81.5 14.5t53.5 37.5t29 51t9 56q0 20 -6 47.5t-24 53t-50.5 43t-86.5 17.5h-257v-320z" />
    <glyph glyph-name="Sigma" unicode="&#x3a3;" horiz-adv-x="570" 
d="M48 0v38l281 334l-270 304v38h472v-38h-422l271 -303l-284 -335h452v-38h-500z" />
    <glyph glyph-name="Tau" unicode="&#x3a4;" horiz-adv-x="522" 
d="M-14 676v38h547v-38h-252v-676h-44v676h-251z" />
    <glyph glyph-name="Upsilon" unicode="&#x3a5;" horiz-adv-x="574" 
d="M546 714h49l-287 -415v-299h-44v299l-285 415h50l258 -378z" />
    <glyph glyph-name="Phi" unicode="&#x3a6;" horiz-adv-x="732" 
d="M388 744v-72q69 -2 126 -23.5t98.5 -59.5t64.5 -93t23 -124q0 -68 -23.5 -121.5t-65.5 -91t-99 -58t-124 -23.5v-78h-45v78q-69 3 -126 22.5t-98 56.5t-63.5 89.5t-22.5 121.5q0 67 23.5 122.5t64.5 95t98 62t124 24.5v72h45zM388 117q58 2 107 19.5t85 50t56 79
t20 106.5t-19.5 107.5t-54.5 81t-84.5 52t-109.5 20.5v-516zM343 633q-59 -2 -108 -21.5t-84 -54t-54.5 -82.5t-19.5 -107q0 -61 19.5 -107t55 -77t84 -48t107.5 -19v516z" />
    <glyph glyph-name="Chi" unicode="&#x3a7;" horiz-adv-x="542" 
d="M1 714h51l226 -314l231 314h50l-252 -347l266 -367h-53l-242 334l-243 -334h-52l268 367z" />
    <glyph glyph-name="Psi" unicode="&#x3a8;" horiz-adv-x="765" 
d="M403 200q61 0 110.5 13t83.5 41.5t52.5 74.5t18.5 113v272h44v-271q0 -143 -75.5 -211t-233.5 -71v-161h-44v161q-161 1 -234 70t-73 212v271h44v-272q0 -67 17 -113t50.5 -74.5t82.5 -41.5t113 -13v514h44v-514z" />
    <glyph glyph-name="Iotadieresis" unicode="&#x3aa;" horiz-adv-x="170" 
d="M142 793v103h44v-103h-44zM-16 793v103h44v-103h-44zM63 714h44v-714h-44v714z" />
    <glyph glyph-name="Upsilondieresis" unicode="&#x3ab;" horiz-adv-x="574" 
d="M345 793v103h44v-103h-44zM187 793v103h44v-103h-44zM546 714h49l-287 -415v-299h-44v299l-285 415h50l258 -378z" />
    <glyph glyph-name="alphatonos" unicode="&#x3ac;" horiz-adv-x="542" 
d="M439 110h-2q-16 -33 -38 -56t-46.5 -37.5t-50 -21.5t-48.5 -7q-59 0 -102 21.5t-70.5 58.5t-40.5 86t-13 103q0 56 14 105t42.5 85.5t70 57.5t97.5 21q24 0 51.5 -7t53 -22t47 -39t33.5 -59h2v115h38v-425q0 -11 0.5 -22t3.5 -20t10 -14.5t20 -5.5q10 0 28 3v-32
q-15 -4 -31 -4q-23 0 -36.5 6t-20.5 16t-9.5 23.5t-2.5 29.5v41zM66 257q0 -42 10.5 -84t33 -75.5t58.5 -55t86 -21.5q47 0 81.5 20.5t57.5 54t34 75.5t11 85q0 55 -14.5 99t-39.5 74.5t-59 47t-73 16.5q-50 0 -85.5 -21t-58 -55t-32.5 -76t-10 -84zM310 730h50l-91 -140
h-38z" />
    <glyph glyph-name="epsilontonos" unicode="&#x3ad;" horiz-adv-x="463" 
d="M152 265q-29 4 -49 16.5t-32.5 29.5t-18.5 36.5t-6 38.5q0 37 15.5 63.5t41 43.5t59.5 25t72 8q70 0 117 -28t62 -94h-37q-11 42 -43.5 65.5t-98.5 23.5q-29 0 -56 -5t-48 -17t-33.5 -32.5t-12.5 -51.5q0 -26 9.5 -46t26 -33.5t38 -20.5t46.5 -7h69v-33h-67
q-63 0 -101 -28t-38 -81q0 -31 12.5 -53t34 -36.5t50.5 -21t63 -6.5q31 0 58.5 5t50 17.5t39.5 35.5t26 59h37q-18 -80 -73.5 -115t-137.5 -35q-39 0 -75 8t-63.5 25.5t-43.5 46t-16 70.5q0 48 31.5 82.5t91.5 42.5v2zM152 263v2v-2zM289 730h50l-91 -140h-38z" />
    <glyph glyph-name="etatonos" unicode="&#x3ae;" 
d="M56 514h38v-110h2q10 29 28.5 51.5t43 38.5t53.5 24t59 8q45 0 76.5 -11t51.5 -29t31.5 -40.5t16.5 -45.5t6 -44.5t1 -37.5v-502h-38v509q0 19 -3 48t-17.5 55.5t-44 45.5t-81.5 19q-44 0 -78 -16t-58 -44.5t-36.5 -68t-12.5 -86.5v-278h-38v514zM318 730h50l-91 -140
h-38z" />
    <glyph glyph-name="iotatonos" unicode="&#x3af;" horiz-adv-x="159" 
d="M134 730h50l-91 -140h-38zM93 89q0 -11 0.5 -22t4 -20t10.5 -14.5t20 -5.5q10 0 28 3v-32q-15 -4 -31 -4q-23 0 -36.5 6t-20.5 16t-9.5 23.5t-2.5 29.5v445h37v-425z" />
    <glyph glyph-name="upsilondieresistonos" unicode="&#x3b0;" horiz-adv-x="504" 
d="M103 514v-328q-1 -51 9.5 -83.5t31 -50.5t48.5 -24.5t62 -6.5q85 0 132.5 63t47.5 191q0 60 -12 119.5t-39 119.5h38q27 -56 39 -118.5t12 -118.5q0 -66 -13 -119.5t-40 -91t-68 -58t-97 -20.5q-95 0 -142 43t-47 142v341h38zM264 730h50l-93 -143h-38zM323 603v103h44
v-103h-44zM124 603v103h44v-103h-44z" />
    <glyph glyph-name="alpha" unicode="&#x3b1;" horiz-adv-x="542" 
d="M439 110h-2q-16 -33 -38 -56t-46.5 -37.5t-50 -21.5t-48.5 -7q-59 0 -102 21.5t-70.5 58.5t-40.5 86t-13 103q0 56 14 105t42.5 85.5t70 57.5t97.5 21q24 0 51.5 -7t53 -22t47 -39t33.5 -59h2v115h38v-425q0 -11 0.5 -22t3.5 -20t10 -14.5t20 -5.5q10 0 28 3v-32
q-15 -4 -31 -4q-23 0 -36.5 6t-20.5 16t-9.5 23.5t-2.5 29.5v41zM66 257q0 -42 10.5 -84t33 -75.5t58.5 -55t86 -21.5q47 0 81.5 20.5t57.5 54t34 75.5t11 85q0 55 -14.5 99t-39.5 74.5t-59 47t-73 16.5q-50 0 -85.5 -21t-58 -55t-32.5 -76t-10 -84z" />
    <glyph glyph-name="beta" unicode="&#x3b2;" horiz-adv-x="535" 
d="M65 506q0 106 49.5 161t145.5 55q49 0 85.5 -13.5t59.5 -36.5t34.5 -53.5t11.5 -63.5q0 -32 -8 -58.5t-21 -46.5t-29 -33t-32 -17v-3q37 -5 63.5 -21.5t44 -42t25.5 -57.5t8 -69q0 -60 -18 -102t-46.5 -68t-65 -37.5t-72.5 -11.5q-79 0 -127 31t-68 88h-2v-291h-38v690z
M103 258q0 -72 16.5 -118t44 -72.5t63 -36.5t73.5 -10q28 0 57 7t53 27t39 56.5t15 95.5q0 47 -12 79t-33.5 51.5t-52.5 27.5t-70 8h-49v33h32q60 0 97 38t37 111q0 66 -43 100t-110 34q-35 0 -64 -10t-49.5 -33t-32 -59.5t-11.5 -89.5v-239z" />
    <glyph glyph-name="gamma" unicode="&#x3b3;" horiz-adv-x="387" 
d="M389 514q-14 -91 -36 -170t-47.5 -146.5t-53 -123.5t-52.5 -101v-157h-38v109q0 61 -15 140t-39 160t-53 157t-57 132h44q20 -38 44 -99.5t45.5 -129.5t38 -133.5t21.5 -111.5h3q21 40 43.5 92.5t43 113t37.5 128.5t29 140h42z" />
    <glyph glyph-name="delta" unicode="&#x3b4;" horiz-adv-x="515" 
d="M30 248q0 91 53.5 155t160.5 90q-37 16 -62 31.5t-40 30.5t-21.5 30t-6.5 30q0 16 8 35t27 35t50 26.5t77 10.5q32 0 70 -5.5t69 -19.5v-33q-35 14 -72.5 19.5t-66.5 5.5q-23 0 -45 -4t-39.5 -13t-28.5 -23t-11 -34q0 -13 6 -24.5t22 -24.5t43.5 -28t69.5 -36
q36 -17 70.5 -40.5t61.5 -55t43.5 -71.5t16.5 -89q0 -51 -13 -97.5t-40 -82.5t-69 -57t-100 -21q-55 0 -98 18.5t-73 53t-46 82t-16 106.5zM68 248q0 -57 15.5 -100t41.5 -71.5t61.5 -42.5t76.5 -14q45 0 79.5 17t58 47t35 71.5t11.5 90.5q0 73 -41.5 129.5t-132.5 101.5
q-97 -21 -151 -76.5t-54 -152.5z" />
    <glyph glyph-name="epsilon" unicode="&#x3b5;" horiz-adv-x="463" 
d="M152 265q-29 4 -49 16.5t-32.5 29.5t-18.5 36.5t-6 38.5q0 37 15.5 63.5t41 43.5t59.5 25t72 8q70 0 117 -28t62 -94h-37q-11 42 -43.5 65.5t-98.5 23.5q-29 0 -56 -5t-48 -17t-33.5 -32.5t-12.5 -51.5q0 -26 9.5 -46t26 -33.5t38 -20.5t46.5 -7h69v-33h-67
q-63 0 -101 -28t-38 -81q0 -31 12.5 -53t34 -36.5t50.5 -21t63 -6.5q31 0 58.5 5t50 17.5t39.5 35.5t26 59h37q-18 -80 -73.5 -115t-137.5 -35q-39 0 -75 8t-63.5 25.5t-43.5 46t-16 70.5q0 48 31.5 82.5t91.5 42.5v2zM152 263v2v-2z" />
    <glyph glyph-name="zeta" unicode="&#x3b6;" horiz-adv-x="409" 
d="M349 -135q6 30 6 55q0 36 -14.5 58t-60.5 22h-31q-105 0 -161 69.5t-56 192.5q0 68 24 131.5t65 118t97 98t120 71.5h-259v33h320v-34q-84 -37 -146 -84t-103 -101t-61 -113.5t-20 -119.5q4 -107 48.5 -168t139.5 -61h24q59 0 84.5 -26t25.5 -82q0 -33 -7 -60h-35z" />
    <glyph glyph-name="eta" unicode="&#x3b7;" 
d="M56 514h38v-110h2q10 29 28.5 51.5t43 38.5t53.5 24t59 8q45 0 76.5 -11t51.5 -29t31.5 -40.5t16.5 -45.5t6 -44.5t1 -37.5v-502h-38v509q0 19 -3 48t-17.5 55.5t-44 45.5t-81.5 19q-44 0 -78 -16t-58 -44.5t-36.5 -68t-12.5 -86.5v-278h-38v514z" />
    <glyph glyph-name="theta" unicode="&#x3b8;" horiz-adv-x="482" 
d="M241 722q62 0 102.5 -25t64.5 -72.5t34 -116t10 -154.5t-10 -153.5t-34.5 -115t-65 -72.5t-101.5 -25q-62 0 -102.5 25.5t-64.5 73t-34 115.5t-10 152t10 152t34.5 116t65 74t101.5 26zM414 379q0 158 -40 234t-133 76t-132 -78t-40 -232h345zM241 21q93 0 133 77.5
t40 247.5h-346q1 -86 11 -147.5t31 -101t53.5 -58t77.5 -18.5z" />
    <glyph glyph-name="iota" unicode="&#x3b9;" horiz-adv-x="159" 
d="M93 89q0 -11 0.5 -22t4 -20t10.5 -14.5t20 -5.5q10 0 28 3v-32q-15 -4 -31 -4q-23 0 -36.5 6t-20.5 16t-9.5 23.5t-2.5 29.5v445h37v-425z" />
    <glyph glyph-name="kappa" unicode="&#x3ba;" horiz-adv-x="466" 
d="M58 514h38v-281l317 281h55l-225 -200l241 -314h-52l-219 285l-117 -99v-186h-38v514z" />
    <glyph glyph-name="lambda" unicode="&#x3bb;" horiz-adv-x="480" 
d="M407 85q10 -35 20 -47t33 -12q5 0 9.5 0.5t9.5 1.5v-31q-9 -2 -14 -2.5t-10 -0.5q-29 0 -47.5 13.5t-33.5 60.5l-124 394l-189 -462h-41l214 503q-11 29 -20 58.5t-17 50.5q-14 35 -32 55.5t-50 20.5q-11 0 -24 -1t-24 -6v33q24 8 48 8q49 0 77.5 -32t53.5 -104z" />
    <glyph glyph-name="nu" unicode="&#x3bd;" horiz-adv-x="432" 
d="M226 44q57 111 100 231t65 239h43q-24 -129 -75.5 -261t-115.5 -253h-41q-51 129 -102.5 257t-101.5 257h44l182 -470h2z" />
    <glyph glyph-name="xi" unicode="&#x3be;" horiz-adv-x="403" 
d="M252 0q-53 0 -94 14.5t-69 40t-42.5 61.5t-14.5 79q0 71 34 114.5t105 56.5v3q-31 9 -53 26t-35.5 38.5t-20 46.5t-6.5 50q0 46 15.5 82t43 60.5t65.5 37t83 12.5q32 0 66 -6t64 -17v-34q-63 24 -130 24q-81 0 -125.5 -43t-44.5 -116q0 -40 14.5 -67.5t40 -44t60.5 -24
t76 -7.5h74v-33h-78q-49 0 -88 -8t-66.5 -27t-42 -49.5t-14.5 -75.5q0 -78 51 -119.5t155 -41.5h6q59 0 84.5 -26t25.5 -82q0 -33 -7 -60h-35q6 30 6 55q0 36 -14.5 58t-60.5 22h-28z" />
    <glyph glyph-name="omicron" unicode="&#x3bf;" horiz-adv-x="536" 
d="M32 257q0 55 15.5 103.5t45.5 85.5t74 58.5t101 21.5t101 -21.5t74 -58.5t45.5 -85.5t15.5 -103.5t-15.5 -104t-45.5 -85.5t-74 -58t-101 -21.5t-101 21.5t-74 58t-45.5 85.5t-15.5 104zM70 257q0 -46 13 -88.5t38 -75.5t62 -52.5t85 -19.5t85 19.5t62 52.5t38 75.5
t13 88.5t-13 88.5t-38 75.5t-62 52.5t-85 19.5t-85 -19.5t-62 -52.5t-38 -75.5t-13 -88.5z" />
    <glyph glyph-name="rho" unicode="&#x3c1;" horiz-adv-x="541" 
d="M56 257q0 60 14.5 109.5t43 85t69 55t93.5 19.5q57 0 100.5 -21.5t72 -58.5t43 -86t14.5 -103q0 -58 -14 -107.5t-42 -85.5t-70 -56t-97 -20q-19 0 -44.5 3.5t-51.5 15.5t-50.5 35.5t-40.5 64.5h-2v-291h-38v441zM468 257q0 50 -12.5 93t-37 75t-60.5 50t-82 18
q-44 0 -77.5 -17t-56.5 -48.5t-35 -75t-12 -95.5q0 -113 47 -174.5t141 -61.5q40 0 74 16t58.5 46.5t38.5 74.5t14 99z" />
    <glyph glyph-name="sigma1" unicode="&#x3c2;" horiz-adv-x="453" 
d="M296 33q60 0 85 -26t25 -82q0 -33 -7 -60h-35q6 30 6 55q0 36 -14.5 58t-60.5 22h-36q-53 0 -95 18t-71 52t-45 82.5t-16 109.5q0 56 14 104t43 83.5t72 56t102 20.5q63 0 114 -28t73 -95h-37q-23 51 -62 70.5t-88 19.5t-85.5 -17t-60.5 -48t-36 -73t-12 -93
q0 -113 53.5 -171t141.5 -58h32z" />
    <glyph glyph-name="sigma" unicode="&#x3c3;" horiz-adv-x="543" 
d="M32 258q0 58 18 105.5t51 81t80.5 51.5t106.5 18h247v-34h-144q57 -48 80.5 -108t23.5 -114q0 -50 -14 -98.5t-42.5 -86.5t-72 -61.5t-101.5 -23.5t-101.5 21.5t-73 58t-44 85.5t-14.5 105zM70 258q0 -60 16 -105t43 -74t62.5 -43.5t73.5 -14.5q45 0 81 19t61 51t38 75.5
t13 91.5q0 38 -9 71.5t-24 61.5t-34 50.5t-38 39.5h-61q-47 0 -87.5 -13.5t-70.5 -41.5t-47 -69.5t-17 -98.5z" />
    <glyph glyph-name="tau" unicode="&#x3c4;" horiz-adv-x="419" 
d="M225 65q0 -23 11 -30.5t27 -7.5q9 0 20.5 1t19.5 3v-33q-9 -2 -24 -3t-25 -1q-67 0 -67 70v417h-179v33h403v-33h-186v-416z" />
    <glyph glyph-name="upsilon" unicode="&#x3c5;" horiz-adv-x="504" 
d="M103 514v-328q-1 -51 9.5 -83.5t31 -50.5t48.5 -24.5t62 -6.5q85 0 132.5 63t47.5 191q0 60 -12 119.5t-39 119.5h38q27 -56 39 -118.5t12 -118.5q0 -66 -13 -119.5t-40 -91t-68 -58t-97 -20.5q-95 0 -142 43t-47 142v341h38z" />
    <glyph glyph-name="phi" unicode="&#x3c6;" horiz-adv-x="696" 
d="M365 526q64 -1 119 -18.5t95 -51t62.5 -82t22.5 -111.5q0 -71 -24 -122t-65 -85t-94.5 -50.5t-113.5 -17.5v-172h-40v172q-62 1 -115.5 17t-93.5 49.5t-63 84.5t-23 122q0 63 22 112t61 82.5t93 51.5t119 19v119h38v-119zM365 22q51 0 98 13.5t83 43t58 75t22 109.5
q0 56 -20.5 99t-55.5 72t-82.5 44t-102.5 15v-471zM327 493q-54 0 -101 -14.5t-81.5 -44t-54.5 -73t-20 -100.5q0 -63 21.5 -109t57 -75t82 -43t96.5 -13v472z" />
    <glyph glyph-name="chi" unicode="&#x3c7;" horiz-adv-x="430" 
d="M442 -184h-48l-182 336l-177 -336h-47l202 373l-185 325h48l159 -288l165 288h48l-189 -323z" />
    <glyph glyph-name="psi" unicode="&#x3c8;" horiz-adv-x="635" 
d="M342 22q47 1 88 17t71 47.5t47 78.5t17 110q0 60 -12 119.5t-39 119.5h37q14 -27 24 -58t16 -62t9 -61t3 -56q0 -69 -19.5 -122.5t-54 -90t-82.5 -56t-105 -20.5v-172h-38v172q-65 4 -110 24t-74 53.5t-42 78t-13 97.5v273h37v-269q0 -100 48.5 -158t153.5 -65v622h38
v-622z" />
    <glyph glyph-name="omega" unicode="&#x3c9;" horiz-adv-x="686" 
d="M484 21q34 0 59 17t41.5 46t24.5 69t8 86q0 61 -17.5 133t-61.5 142h38q45 -69 61.5 -137t16.5 -138q0 -53 -10.5 -98.5t-31.5 -79.5t-53 -53.5t-75 -19.5q-53 0 -89.5 30t-50.5 87h-3q-14 -57 -50 -87t-89 -30q-43 0 -75 19.5t-53 53.5t-31.5 79.5t-10.5 98.5
q0 70 16.5 138t61.5 137h38q-44 -70 -61.5 -142t-17.5 -133q0 -46 8 -86t24.5 -69t41.5 -46t59 -17q52 0 87 38t35 113v216h37v-216q0 -37 10 -65.5t27 -47.5t39 -28.5t47 -9.5z" />
    <glyph glyph-name="iotadieresis" unicode="&#x3ca;" horiz-adv-x="159" 
d="M93 89q0 -11 0.5 -22t4 -20t10.5 -14.5t20 -5.5q10 0 28 3v-32q-15 -4 -31 -4q-23 0 -36.5 6t-20.5 16t-9.5 23.5t-2.5 29.5v445h37v-425zM134 603v103h44v-103h-44zM-24 603v103h44v-103h-44z" />
    <glyph glyph-name="upsilondieresis" unicode="&#x3cb;" horiz-adv-x="504" 
d="M103 514v-328q-1 -51 9.5 -83.5t31 -50.5t48.5 -24.5t62 -6.5q85 0 132.5 63t47.5 191q0 60 -12 119.5t-39 119.5h38q27 -56 39 -118.5t12 -118.5q0 -66 -13 -119.5t-40 -91t-68 -58t-97 -20.5q-95 0 -142 43t-47 142v341h38zM304 603v103h44v-103h-44zM146 603v103h44
v-103h-44z" />
    <glyph glyph-name="omicrontonos" unicode="&#x3cc;" horiz-adv-x="536" 
d="M322 730h50l-91 -140h-38zM32 257q0 55 15.5 103.5t45.5 85.5t74 58.5t101 21.5t101 -21.5t74 -58.5t45.5 -85.5t15.5 -103.5t-15.5 -104t-45.5 -85.5t-74 -58t-101 -21.5t-101 21.5t-74 58t-45.5 85.5t-15.5 104zM70 257q0 -46 13 -88.5t38 -75.5t62 -52.5t85 -19.5
t85 19.5t62 52.5t38 75.5t13 88.5t-13 88.5t-38 75.5t-62 52.5t-85 19.5t-85 -19.5t-62 -52.5t-38 -75.5t-13 -88.5z" />
    <glyph glyph-name="upsilontonos" unicode="&#x3cd;" horiz-adv-x="504" 
d="M103 514v-328q-1 -51 9.5 -83.5t31 -50.5t48.5 -24.5t62 -6.5q85 0 132.5 63t47.5 191q0 60 -12 119.5t-39 119.5h38q27 -56 39 -118.5t12 -118.5q0 -66 -13 -119.5t-40 -91t-68 -58t-97 -20.5q-95 0 -142 43t-47 142v341h38zM297 730h50l-91 -140h-38z" />
    <glyph glyph-name="omegatonos" unicode="&#x3ce;" horiz-adv-x="686" 
d="M484 21q34 0 59 17t41.5 46t24.5 69t8 86q0 61 -17.5 133t-61.5 142h38q45 -69 61.5 -137t16.5 -138q0 -53 -10.5 -98.5t-31.5 -79.5t-53 -53.5t-75 -19.5q-53 0 -89.5 30t-50.5 87h-3q-14 -57 -50 -87t-89 -30q-43 0 -75 19.5t-53 53.5t-31.5 79.5t-10.5 98.5
q0 70 16.5 138t61.5 137h38q-44 -70 -61.5 -142t-17.5 -133q0 -46 8 -86t24.5 -69t41.5 -46t59 -17q52 0 87 38t35 113v216h37v-216q0 -37 10 -65.5t27 -47.5t39 -28.5t47 -9.5zM397 730h50l-91 -140h-38z" />
    <glyph glyph-name="uni0400" unicode="&#x400;" horiz-adv-x="560" 
d="M63 714h480v-38h-436v-286h410v-38h-410v-314h441v-38h-485v714zM298 780l-134 140h51l120 -140h-37z" />
    <glyph glyph-name="afii10023" unicode="&#x401;" horiz-adv-x="560" 
d="M63 714h480v-38h-436v-286h410v-38h-410v-314h441v-38h-485v714zM355 793v103h44v-103h-44zM197 793v103h44v-103h-44z" />
    <glyph glyph-name="afii10051" unicode="&#x402;" horiz-adv-x="714" 
d="M684 166q0 -61 -17 -112.5t-48.5 -89t-76 -59t-100.5 -22.5v37q49 2 86.5 21t62.5 51t37.5 76.5t12.5 97.5q0 50 -12.5 92t-36.5 72t-58 47t-77 17q-90 0 -141.5 -62t-51.5 -170v-162h-44v676h-234v38h547v-38h-269v-372h2q25 62 75 95t119 33q52 0 93.5 -19.5
t70.5 -54.5t44.5 -84t15.5 -108z" />
    <glyph glyph-name="afii10052" unicode="&#x403;" horiz-adv-x="485" 
d="M63 714h436v-38h-392v-676h-44v714zM328 920h51l-134 -140h-37z" />
    <glyph glyph-name="afii10053" unicode="&#x404;" horiz-adv-x="704" 
d="M677 273q-5 -62 -29.5 -115t-65 -92t-97 -61t-125.5 -22q-74 0 -134 26.5t-102 75t-65 117t-23 152.5q0 87 23.5 157t66.5 118.5t104.5 75t138.5 26.5q122 0 200.5 -59.5t96.5 -165.5h-44q-15 89 -84 138t-172 49q-63 0 -113.5 -21t-87.5 -60.5t-58.5 -95.5t-26.5 -126
h375v-38h-376q0 -75 20.5 -136t57.5 -104.5t89 -67t116 -23.5q60 0 108 19t82.5 53t55.5 80t26 100h43v0z" />
    <glyph glyph-name="afii10054" unicode="&#x405;" horiz-adv-x="630" 
d="M529 510q-2 46 -19.5 80t-47.5 57t-71.5 34.5t-90.5 11.5q-30 0 -64.5 -7t-64 -24.5t-48.5 -47t-19 -73.5q0 -43 21 -70t55 -43.5t78 -26.5t89 -19q46 -9 89.5 -21.5t78 -34t55.5 -56t21 -86.5q0 -56 -24 -94t-60.5 -62t-81 -34.5t-85.5 -10.5q-63 0 -118 13.5t-96 44
t-64.5 78.5t-22.5 117h44q-3 -59 17 -99.5t55.5 -66.5t83.5 -37.5t101 -11.5q32 0 68.5 8t67 27t51 50t20.5 78q0 45 -21 73.5t-55.5 46t-78 28t-89.5 19.5q-45 9 -89 21t-78 32.5t-55 53t-21 83.5t21.5 87.5t56 59t77.5 33t85 10.5q56 0 104.5 -12.5t85 -39t58.5 -68.5
t25 -101h-44z" />
    <glyph glyph-name="afii10055" unicode="&#x406;" horiz-adv-x="170" 
d="M63 714h44v-714h-44v714z" />
    <glyph glyph-name="afii10056" unicode="&#x407;" horiz-adv-x="170" 
d="M142 793v103h44v-103h-44zM-16 793v103h44v-103h-44zM63 714h44v-714h-44v714z" />
    <glyph glyph-name="afii10057" unicode="&#x408;" horiz-adv-x="481" 
d="M64 227q-3 -40 1 -77t20 -65.5t47.5 -46t84.5 -17.5q61 0 93.5 20t46.5 51t15.5 69.5t1.5 75.5v477h44v-492q0 -21 -0.5 -47t-6 -52.5t-17 -51.5t-33.5 -44.5t-55.5 -31.5t-83.5 -12q-72 0 -113 23t-60.5 59t-24 79t-4.5 83h44z" />
    <glyph glyph-name="afii10058" unicode="&#x409;" horiz-adv-x="1017" 
d="M520 676h-291l-16 -449q-2 -64 -11.5 -109t-27.5 -73.5t-44.5 -41.5t-62.5 -13q-19 0 -35 3.5t-30 8.5v40q28 -14 60 -14q25 0 44.5 9.5t32.5 33.5t20.5 63.5t9.5 99.5l17 480h378v-313h209q100 0 157 -52t57 -148q0 -46 -15 -83t-43.5 -63.5t-68.5 -40.5t-90 -14h-250
v676zM766 38q82 0 129.5 42.5t47.5 120.5t-47 120t-129 42h-203v-325h202z" />
    <glyph glyph-name="afii10059" unicode="&#x40a;" horiz-adv-x="1017" 
d="M554 401h219q100 0 157 -52t57 -148q0 -46 -15 -83t-43.5 -63.5t-68.5 -40.5t-90 -14h-260v363h-403v-363h-44v714h44v-313h403v313h44v-313zM766 38q82 0 129.5 42.5t47.5 120.5t-47 120t-129 42h-213v-325h212z" />
    <glyph glyph-name="afii10060" unicode="&#x40b;" horiz-adv-x="718" 
d="M264 0h-44v676h-234v38h547v-38h-269v-302q35 23 85.5 40.5t104.5 17.5q58 0 97.5 -15.5t64 -43t35.5 -65t11 -82.5v-226h-44v219q0 37 -8 69.5t-27 55.5t-51.5 36.5t-81.5 13.5q-46 0 -97 -17t-89 -45v-332z" />
    <glyph glyph-name="afii10061" unicode="&#x40c;" horiz-adv-x="613" 
d="M382 920h51l-134 -140h-37zM63 714h44v-411l449 411h57l-326 -297l346 -417h-55l-323 387l-148 -135v-252h-44v714z" />
    <glyph glyph-name="uni040D" unicode="&#x40d;" horiz-adv-x="670" 
d="M563 659h-3l-443 -659h-54v714h44v-659h3l442 659h55v-714h-44v659zM336 780l-134 140h51l120 -140h-37z" />
    <glyph glyph-name="afii10062" unicode="&#x40e;" horiz-adv-x="556" 
d="M-12 714h48l251 -520l238 520h46l-304 -652q-37 -79 -113 -79q-21 0 -41.5 6t-34.5 16v43q15 -12 35.5 -19.5t41.5 -7.5q29 0 48.5 16t33.5 47l29 64zM419 910q-3 -24 -14.5 -46t-29 -38.5t-40 -26t-47.5 -9.5q-57 0 -95 31.5t-45 88.5h33q6 -26 18 -43t26.5 -27
t30.5 -13.5t31 -3.5q39 0 65.5 24t33.5 63h33z" />
    <glyph glyph-name="afii10145" unicode="&#x40f;" horiz-adv-x="670" 
d="M63 0v714h44v-676h456v676h44v-714h-251v-184h-43v184h-250z" />
    <glyph glyph-name="afii10017" unicode="&#x410;" horiz-adv-x="593" 
d="M275 714h48l282 -714h-47l-90 229h-342l-91 -229h-47zM454 267l-153 404h-2l-159 -404h314z" />
    <glyph glyph-name="afii10018" unicode="&#x411;" horiz-adv-x="630" 
d="M107 676v-275h277q100 0 157 -52t57 -148q0 -46 -15 -83t-43.5 -63.5t-68.5 -40.5t-90 -14h-318v714h488v-38h-444zM377 38q82 0 129.5 42.5t47.5 120.5t-47 120t-129 42h-271v-325h270z" />
    <glyph glyph-name="afii10019" unicode="&#x412;" horiz-adv-x="630" 
d="M63 714h286q64 0 107 -16t69 -42t37.5 -59.5t11.5 -67.5q0 -29 -10 -55t-28.5 -46t-44 -33.5t-56.5 -17.5l2 -2q7 1 33 -6t54.5 -26.5t51 -54t22.5 -88.5q0 -49 -18 -86t-50.5 -62.5t-78.5 -38.5t-102 -13h-286v714zM349 390q91 0 136 40.5t45 106.5q0 39 -15 65.5
t-40 43t-57.5 23.5t-68.5 7h-242v-286h242zM349 38q96 0 150.5 40.5t54.5 121.5q0 46 -19 75.5t-48.5 46.5t-66 23.5t-71.5 6.5h-242v-314h242z" />
    <glyph glyph-name="afii10020" unicode="&#x413;" horiz-adv-x="485" 
d="M63 714h436v-38h-392v-676h-44v714z" />
    <glyph glyph-name="afii10021" unicode="&#x414;" horiz-adv-x="670" 
d="M621 -184v184h-559v-184h-43v222h63q38 70 59.5 146.5t32 152t13 147t2.5 131.5v99h403v-676h72v-222h-43zM548 676h-315v-68q0 -60 -2.5 -130.5t-13 -145t-31 -150t-56.5 -144.5h418v638z" />
    <glyph glyph-name="afii10022" unicode="&#x415;" horiz-adv-x="560" 
d="M63 714h480v-38h-436v-286h410v-38h-410v-314h441v-38h-485v714z" />
    <glyph glyph-name="afii10024" unicode="&#x416;" horiz-adv-x="980" 
d="M468 287l-129 118l-303 -405h-53l325 433l-305 281h59l406 -374v374h44v-375l408 375h57l-305 -280l325 -434h-54l-303 405l-128 -117v-288h-44v287z" />
    <glyph glyph-name="afii10025" unicode="&#x417;" horiz-adv-x="624" 
d="M317 -17q-63 0 -115.5 15.5t-89.5 46.5t-57.5 78.5t-20.5 112.5h44q2 -111 66 -163t175 -52q43 0 83 11t70.5 33.5t49 55.5t18.5 77q0 47 -17.5 77t-47 47t-67.5 23.5t-79 6.5h-39.5t-31.5 -1v39q16 -1 31.5 -1h39.5q36 0 71 7.5t63 25t45 46.5t17 71q0 39 -15 68t-42 48
t-63.5 28.5t-79.5 9.5q-47 0 -87 -10t-69.5 -32t-47.5 -56.5t-21 -83.5h-44q4 57 25.5 98.5t57 68.5t83 40t103.5 13q52 0 96.5 -12t77.5 -36t51.5 -59.5t18.5 -83.5q0 -38 -12.5 -67.5t-33.5 -49.5t-47.5 -32t-54.5 -16v-2q37 -6 67 -18t51.5 -33t33 -51.5t11.5 -72.5
q0 -53 -21 -93t-57.5 -67t-85 -41t-103.5 -14z" />
    <glyph glyph-name="afii10026" unicode="&#x418;" horiz-adv-x="670" 
d="M563 659h-3l-443 -659h-54v714h44v-659h3l442 659h55v-714h-44v659z" />
    <glyph glyph-name="afii10027" unicode="&#x419;" horiz-adv-x="670" 
d="M563 659h-3l-443 -659h-54v714h44v-659h3l442 659h55v-714h-44v659zM472 910q-3 -24 -14.5 -46t-29 -38.5t-40 -26t-47.5 -9.5q-57 0 -95 31.5t-45 88.5h33q6 -26 18 -43t26.5 -27t30.5 -13.5t31 -3.5q39 0 65.5 24t33.5 63h33z" />
    <glyph glyph-name="afii10028" unicode="&#x41a;" horiz-adv-x="613" 
d="M63 714h44v-411l449 411h57l-326 -297l346 -417h-55l-323 387l-148 -135v-252h-44v714z" />
    <glyph glyph-name="afii10029" unicode="&#x41b;" horiz-adv-x="652" 
d="M589 714v-714h-44v676h-316l-16 -449q-2 -64 -11.5 -109t-27.5 -73.5t-44.5 -41.5t-62.5 -13q-19 0 -35 3.5t-30 8.5v40q28 -14 60 -14q25 0 44.5 9.5t32.5 33.5t20.5 63.5t9.5 99.5l17 480h403z" />
    <glyph glyph-name="afii10030" unicode="&#x41c;" horiz-adv-x="809" 
d="M63 714h63l279 -665h2l276 665h63v-714h-44v660h-2l-272 -660h-44l-275 660h-2v-660h-44v714z" />
    <glyph glyph-name="afii10031" unicode="&#x41d;" horiz-adv-x="670" 
d="M63 714h44v-324h456v324h44v-714h-44v352h-456v-352h-44v714z" />
    <glyph glyph-name="afii10032" unicode="&#x41e;" horiz-adv-x="741" 
d="M710 357q0 -78 -23 -146.5t-66.5 -119t-106.5 -79.5t-143 -29t-143.5 29t-107 79.5t-66.5 119t-23 146.5t23 146.5t66.5 119t107 79.5t143.5 29t143 -29t106.5 -79.5t66.5 -119t23 -146.5zM75 357q0 -69 20 -130t58 -106.5t93 -72.5t125 -27t124.5 27t92.5 72.5t58 106.5
t20 130t-20 130t-58 106.5t-92.5 72.5t-124.5 27t-125 -27t-93 -72.5t-58 -106.5t-20 -130z" />
    <glyph glyph-name="afii10033" unicode="&#x41f;" horiz-adv-x="670" 
d="M607 0h-44v676h-456v-676h-44v714h544v-714z" />
    <glyph glyph-name="afii10034" unicode="&#x420;" horiz-adv-x="591" 
d="M63 714h304q30 0 66.5 -7t68 -28.5t52.5 -61t21 -103.5q0 -94 -58 -145t-166 -51h-244v-318h-44v714zM107 356h251q48 0 81.5 14.5t53.5 37.5t29 51t9 56q0 20 -6 47.5t-24 53t-50.5 43t-86.5 17.5h-257v-320z" />
    <glyph glyph-name="afii10035" unicode="&#x421;" horiz-adv-x="704" 
d="M36 357q0 78 23 146.5t66.5 119t107 79.5t143.5 29q63 0 109 -16.5t77.5 -41t51.5 -53.5t30.5 -54.5t14.5 -44t4 -20.5h-44q-7 45 -29 80.5t-55 60.5t-73.5 38t-85.5 13q-70 0 -125 -27t-93 -72.5t-58 -106.5t-20 -130t20 -130t58 -106.5t93 -72.5t125 -27
q52 0 97.5 21.5t79.5 57t54.5 82t23.5 96.5h44q-6 -64 -31.5 -118t-65 -93.5t-91.5 -61.5t-111 -22q-80 0 -143.5 29t-107 79.5t-66.5 119t-23 146.5z" />
    <glyph glyph-name="afii10036" unicode="&#x422;" 
d="M-14 676v38h547v-38h-252v-676h-44v676h-251z" />
    <glyph glyph-name="afii10037" unicode="&#x423;" horiz-adv-x="556" 
d="M-12 714h48l251 -520l238 520h46l-304 -652q-37 -79 -113 -79q-21 0 -41.5 6t-34.5 16v43q15 -12 35.5 -19.5t41.5 -7.5q29 0 48.5 16t33.5 47l29 64z" />
    <glyph glyph-name="afii10038" unicode="&#x424;" horiz-adv-x="722" 
d="M693 359q0 -69 -25 -120.5t-68 -86t-99 -52t-118 -17.5v-83h-44v83q-63 0 -119 17t-98.5 51.5t-67.5 86.5t-25 121t25 120.5t68 86t99 52t118 17.5v79h44v-79q63 0 119 -17t98.5 -51.5t67.5 -86.5t25 -121zM649 359q0 60 -21.5 104.5t-58.5 74t-85 44.5t-101 15v-476
q54 0 102 15t84.5 44.5t58 74t21.5 104.5zM73 359q0 -60 21.5 -104.5t58.5 -74t85 -44.5t101 -15v476q-54 0 -102 -15t-84.5 -44.5t-58 -74t-21.5 -104.5z" />
    <glyph glyph-name="afii10039" unicode="&#x425;" horiz-adv-x="556" 
d="M1 714h51l226 -314l231 314h50l-252 -347l266 -367h-53l-242 334l-243 -334h-52l268 367z" />
    <glyph glyph-name="afii10040" unicode="&#x426;" horiz-adv-x="685" 
d="M636 0h-573v714h44v-676h456v676h44v-676h72v-222h-43v184z" />
    <glyph glyph-name="afii10041" unicode="&#x427;" horiz-adv-x="614" 
d="M507 348q-55 -20 -116 -32t-118 -12q-66 0 -109.5 15t-69 43.5t-35.5 71t-10 96.5v184h44v-181q0 -46 7.5 -81.5t28 -60t55.5 -37t90 -12.5q54 0 113.5 12t119.5 32v328h44v-714h-44v348v0z" />
    <glyph glyph-name="afii10042" unicode="&#x428;" horiz-adv-x="1008" 
d="M901 714h44v-714h-882v714h44v-676h375v676h44v-676h375v676z" />
    <glyph glyph-name="afii10043" unicode="&#x429;" horiz-adv-x="1023" 
d="M901 714h44v-676h72v-222h-43v184h-911v714h44v-676h375v676h44v-676h375v676z" />
    <glyph glyph-name="afii10044" unicode="&#x42a;" horiz-adv-x="778" 
d="M231 676h-245v38h289v-313h259q100 0 157 -52t57 -148q0 -46 -15 -83t-43.5 -63.5t-68.5 -40.5t-90 -14h-300v676zM527 38q82 0 129.5 42.5t47.5 120.5t-47 120t-129 42h-253v-325h252z" />
    <glyph glyph-name="afii10045" unicode="&#x42b;" horiz-adv-x="800" 
d="M693 714h44v-714h-44v714zM63 714h44v-313h259q100 0 157 -52t57 -148q0 -46 -15 -83t-43.5 -63.5t-68.5 -40.5t-90 -14h-300v714zM359 38q82 0 129.5 42.5t47.5 120.5t-47 120t-129 42h-253v-325h252z" />
    <glyph glyph-name="afii10046" unicode="&#x42c;" horiz-adv-x="610" 
d="M63 714h44v-313h259q100 0 157 -52t57 -148q0 -46 -15 -83t-43.5 -63.5t-68.5 -40.5t-90 -14h-300v714zM359 38q82 0 129.5 42.5t47.5 120.5t-47 120t-129 42h-253v-325h252z" />
    <glyph glyph-name="afii10047" unicode="&#x42d;" horiz-adv-x="704" 
d="M254 390h375q-5 70 -25 126t-54.5 95.5t-83 60.5t-111.5 21q-101 0 -171.5 -50t-95.5 -137h-44q29 104 107.5 164.5t204.5 60.5q75 0 134 -26.5t99.5 -75t62 -118.5t21.5 -157q0 -84 -24 -152.5t-67.5 -117t-104.5 -75t-134 -26.5q-72 0 -128.5 21.5t-96.5 60.5t-62.5 92
t-26.5 116h43q4 -54 23.5 -100t54 -80t82.5 -53t109 -19q64 0 117 23.5t91 67t59.5 104.5t21.5 136h-376v38z" />
    <glyph glyph-name="afii10048" unicode="&#x42e;" horiz-adv-x="980" 
d="M949 357q0 -78 -23 -146.5t-66.5 -119t-106.5 -79.5t-143 -29t-143 28.5t-106.5 78.5t-66.5 117t-24 145h-163v-352h-44v714h44v-324h164q4 72 29 134.5t68.5 108.5t104.5 72t137 26q80 0 143 -29t106.5 -79.5t66.5 -119t23 -146.5zM314 357q0 -69 20 -130t58 -106.5
t93 -72.5t125 -27t124.5 27t92.5 72.5t58 106.5t20 130t-20 130t-58 106.5t-92.5 72.5t-124.5 27t-125 -27t-93 -72.5t-58 -106.5t-20 -130z" />
    <glyph glyph-name="afii10049" unicode="&#x42f;" horiz-adv-x="630" 
d="M523 325h-249l-236 -325h-51l242 328q-40 3 -74 16.5t-58.5 36.5t-38.5 56.5t-14 76.5q0 94 58.5 147t162.5 53h302v-714h-44v325zM265 676q-82 0 -130 -40.5t-48 -120.5q0 -39 13.5 -68t37.5 -47.5t56.5 -27.5t70.5 -9h258v313h-258z" />
    <glyph glyph-name="afii10065" unicode="&#x430;" horiz-adv-x="500" 
d="M397 102h-2q-9 -23 -26 -43.5t-41.5 -36.5t-55.5 -25t-68 -9q-82 0 -127 35.5t-45 109.5q0 45 18 73.5t45.5 45t61 23.5t64.5 10l59 5q41 3 64.5 9.5t35.5 18t15 29.5t3 45q0 21 -8 39t-25 32t-44 22t-66 8q-69 0 -111.5 -34t-46.5 -103h-38q4 85 54.5 127.5t143.5 42.5
t135.5 -36.5t42.5 -95.5v-299q0 -11 0.5 -22t3.5 -20t10 -14.5t20 -5.5q10 0 28 3v-32q-15 -4 -31 -4q-23 0 -36.5 6t-20.5 16t-9.5 23.5t-2.5 29.5v27zM397 292q-14 -17 -42.5 -23t-63.5 -9l-64 -6q-28 -3 -56 -8.5t-50.5 -18.5t-36.5 -35.5t-14 -58.5q0 -57 36 -84.5
t99 -27.5q65 0 103 23.5t58 54t25.5 59t5.5 38.5v96z" />
    <glyph glyph-name="afii10066" unicode="&#x431;" horiz-adv-x="537" 
d="M504 251q0 -59 -17 -107.5t-47.5 -83t-73 -53.5t-94.5 -19q-54 0 -97 20.5t-72.5 57.5t-45.5 89t-16 116q0 95 12.5 165.5t40.5 118.5t71.5 75t105.5 35l84 11q41 5 56.5 13.5t20.5 24.5h44q-4 -17 -10.5 -30t-19.5 -22t-33 -14.5t-50 -9.5l-83 -10q-48 -6 -82 -23
t-58 -48t-39 -77t-24 -110h2q30 73 84 105t116 32q49 0 90.5 -18t71.5 -51.5t46.5 -81t16.5 -105.5zM466 251q0 51 -14 92t-39.5 70t-60.5 45t-76 16t-77 -15.5t-62.5 -44t-42 -69t-15.5 -90.5q0 -51 14.5 -94t40 -74t61.5 -48.5t79 -17.5q42 0 77 16t60.5 46t40 72.5
t14.5 95.5z" />
    <glyph glyph-name="afii10067" unicode="&#x432;" horiz-adv-x="500" 
d="M57 0v514h236q76 0 116 -33.5t40 -92.5q0 -48 -26 -76t-69 -37v-2q53 -10 83.5 -41.5t30.5 -88.5q0 -69 -47.5 -106t-132.5 -37h-231zM95 481v-193h194q57 0 89.5 25t32.5 70q0 48 -31.5 73t-89.5 25h-195zM287 33q69 0 106 28.5t37 82.5q0 51 -35 81t-104 30h-196v-222
h192z" />
    <glyph glyph-name="afii10068" unicode="&#x433;" horiz-adv-x="396" 
d="M94 0h-38v514h338v-33h-300v-481z" />
    <glyph glyph-name="afii10069" unicode="&#x434;" horiz-adv-x="537" 
d="M49 0v-161h-38v194h61q43 83 59.5 185t16.5 221v75h315v-481h65v-194h-38v161h-441zM425 481h-240v-43q0 -120 -15.5 -220t-57.5 -185h313v448z" />
    <glyph glyph-name="afii10070" unicode="&#x435;" 
d="M71 252v-6q0 -45 12 -86t35.5 -72t59 -49t82.5 -18q77 0 122 40.5t62 112.5h38q-17 -90 -73.5 -138t-149.5 -48q-57 0 -99.5 20.5t-71 56t-42.5 84t-14 104.5q0 54 14.5 103.5t43.5 87t72.5 60t102.5 22.5q54 0 95.5 -20t69.5 -54.5t42.5 -80t14.5 -97.5q0 -5 -0.5 -11.5
t-0.5 -10.5h-415zM448 285q-2 42 -14 79.5t-35.5 66t-57 45.5t-76.5 17q-46 0 -81 -17.5t-59 -46t-37 -66.5t-16 -78h376z" />
    <glyph glyph-name="afii10072" unicode="&#x436;" horiz-adv-x="722" 
d="M39 0h-50l234 298l-210 216h57l272 -282v282h38v-283l275 283h54l-211 -214l235 -300h-52l-212 270l-89 -90v-180h-38v179l-90 91z" />
    <glyph glyph-name="afii10073" unicode="&#x437;" horiz-adv-x="470" 
d="M421 389q0 -46 -30.5 -76.5t-79.5 -38.5v-1q58 -7 90.5 -37t32.5 -87q0 -40 -16.5 -70t-44 -50.5t-63 -30.5t-74.5 -10q-97 0 -152.5 44.5t-55.5 140.5h38q0 -78 44.5 -115t125.5 -37q29 0 58 8t51.5 23.5t36.5 39.5t14 57q0 57 -41.5 81.5t-115.5 24.5h-56v34h46
q27 0 54.5 4.5t49.5 15.5t36 30.5t14 49.5q0 51 -39 77.5t-102 26.5q-71 0 -113.5 -29.5t-48.5 -100.5h-38q2 82 57 122.5t144 40.5q39 0 71.5 -8.5t56 -25.5t37 -43t13.5 -60z" />
    <glyph glyph-name="afii10074" unicode="&#x438;" 
d="M425 462h-1l-321 -462h-47v514h38v-464h1l320 464h48v-514h-38v462z" />
    <glyph glyph-name="afii10075" unicode="&#x439;" 
d="M425 462h-1l-321 -462h-47v514h38v-464h1l320 464h48v-514h-38v462zM395 720q-3 -24 -14.5 -46t-29 -38.5t-40 -26t-47.5 -9.5q-57 0 -95 31.5t-45 88.5h33q6 -26 18 -43t26.5 -27t30.5 -13.5t31 -3.5q39 0 65.5 24t33.5 63h33z" />
    <glyph glyph-name="afii10076" unicode="&#x43a;" horiz-adv-x="463" 
d="M58 514h38v-281l317 281h55l-225 -200l241 -314h-52l-219 285l-117 -99v-186h-38v514z" />
    <glyph glyph-name="afii10077" unicode="&#x43b;" horiz-adv-x="524" 
d="M468 514v-514h-38v481h-240l-11 -290q-2 -58 -11.5 -96.5t-25.5 -62t-37.5 -33t-48.5 -9.5q-29 0 -54 11v37q14 -7 26 -9.5t26 -2.5q20 0 35.5 8.5t26.5 28t17 51.5t8 80l12 320h315z" />
    <glyph glyph-name="afii10078" unicode="&#x43c;" horiz-adv-x="630" 
d="M94 0h-38v514h62l197 -467l197 467h62v-514h-38v478h-2l-198 -478h-42l-198 478h-2v-478z" />
    <glyph glyph-name="afii10079" unicode="&#x43d;" 
d="M425 257h-331v-257h-38v514h38v-224h331v224h38v-514h-38v257z" />
    <glyph glyph-name="afii10080" unicode="&#x43e;" horiz-adv-x="537" 
d="M32 257q0 55 15.5 103.5t45.5 85.5t74 58.5t101 21.5t101 -21.5t74 -58.5t45.5 -85.5t15.5 -103.5t-15.5 -104t-45.5 -85.5t-74 -58t-101 -21.5t-101 21.5t-74 58t-45.5 85.5t-15.5 104zM70 257q0 -46 13 -88.5t38 -75.5t62 -52.5t85 -19.5t85 19.5t62 52.5t38 75.5
t13 88.5t-13 88.5t-38 75.5t-62 52.5t-85 19.5t-85 -19.5t-62 -52.5t-38 -75.5t-13 -88.5z" />
    <glyph glyph-name="afii10081" unicode="&#x43f;" 
d="M94 481v-481h-38v514h407v-514h-38v481h-331z" />
    <glyph glyph-name="afii10082" unicode="&#x440;" horiz-adv-x="556" 
d="M103 396h2q6 19 20 42t37 42.5t55.5 32.5t74.5 13q59 0 102.5 -22t72 -59t42.5 -86t14 -103q0 -59 -14 -108t-42.5 -84.5t-72 -55.5t-102.5 -20q-64 0 -114 28t-73 91h-2v-291h-38v698h38v-118zM292 21q50 0 86.5 19t60 51t35 74.5t11.5 90.5q0 44 -11 86.5t-34 76
t-59.5 54t-88.5 20.5q-51 0 -87 -20t-58.5 -53t-32.5 -75.5t-10 -88.5t9 -88.5t30.5 -75t58 -52t90.5 -19.5z" />
    <glyph glyph-name="afii10083" unicode="&#x441;" 
d="M443 355q-3 34 -17.5 60t-37.5 43t-53.5 26t-65.5 9q-48 0 -85 -19.5t-62 -52t-38 -74t-13 -85.5q0 -52 12 -96t37 -76.5t62 -50.5t87 -18q36 0 66.5 12t54 33t38.5 50.5t20 64.5h38q-6 -46 -25 -82t-48 -60.5t-66 -37.5t-78 -13q-63 0 -107.5 22.5t-73 60.5t-42 87.5
t-13.5 103.5t15.5 102t45.5 84t74 57t101 21q42 0 78.5 -10.5t65 -31.5t46.5 -53.5t22 -75.5h-38z" />
    <glyph glyph-name="afii10084" unicode="&#x442;" horiz-adv-x="444" 
d="M241 0h-38v481h-195v33h428v-33h-195v-481z" />
    <glyph glyph-name="afii10085" unicode="&#x443;" horiz-adv-x="444" 
d="M-6 514h45l191 -469l176 469h43l-220 -569q-16 -38 -29.5 -65.5t-30.5 -40.5q-20 -16 -47.5 -19.5t-72.5 -3.5v33q41 0 64 6.5t43 26.5q11 11 23 40.5t30 80.5z" />
    <glyph glyph-name="afii10086" unicode="&#x444;" horiz-adv-x="766" 
d="M364 63q-20 -32 -55 -53.5t-84 -21.5q-48 0 -83 21t-58.5 57.5t-35 85.5t-11.5 105q0 54 12 102.5t36 85.5t61 59t87 22q49 0 83 -22.5t48 -52.5v263h38v-266q20 32 56 55t83 23q49 0 84.5 -21.5t58.5 -58.5t34 -85.5t11 -103.5t-12.5 -104t-37 -85.5t-60.5 -58
t-83 -21.5q-49 0 -83 21t-51 54v-247h-38v247zM691 257q0 46 -8 88.5t-26.5 75.5t-48.5 52.5t-73 19.5q-26 0 -50 -11t-42.5 -29t-29.5 -42.5t-11 -51.5v-207q0 -27 10 -51t28 -41.5t42 -28t51 -10.5q39 0 68.5 18t49.5 50t30 75t10 93zM75 257q0 -50 9 -93t27.5 -75
t47.5 -50t69 -18q27 0 52 10.5t43.5 28t29.5 41.5t11 51v207q0 27 -10 51.5t-27.5 42.5t-40.5 29t-49 11q-44 0 -74.5 -19.5t-50 -52.5t-28.5 -75.5t-9 -88.5z" />
    <glyph glyph-name="afii10087" unicode="&#x445;" horiz-adv-x="444" 
d="M196 270l-188 244h53l161 -215l162 215h49l-186 -244l203 -270h-52l-176 241l-180 -241h-48z" />
    <glyph glyph-name="afii10088" unicode="&#x446;" horiz-adv-x="537" 
d="M490 0h-434v514h38v-481h331v481h38v-481h65v-194h-38v161z" />
    <glyph glyph-name="afii10089" unicode="&#x447;" horiz-adv-x="483" 
d="M389 245q-32 -11 -78.5 -22.5t-99.5 -11.5q-82 0 -125 38t-43 127v138h38v-140q0 -69 34.5 -99.5t97.5 -30.5q49 0 96 10.5t80 23.5v236h38v-514h-38v245v0z" />
    <glyph glyph-name="afii10090" unicode="&#x448;" horiz-adv-x="768" 
d="M712 0h-656v514h38v-481h271v481h38v-481h271v481h38v-514z" />
    <glyph glyph-name="afii10091" unicode="&#x449;" horiz-adv-x="789" 
d="M739 0h-683v514h38v-481h271v481h38v-481h271v481h38v-481h65v-194h-38v161z" />
    <glyph glyph-name="afii10092" unicode="&#x44a;" horiz-adv-x="611" 
d="M179 481h-171v33h209v-215h207q75 0 117 -39.5t42 -108.5q0 -71 -43 -111t-118 -40h-243v481zM545 151q0 52 -33 83.5t-94 31.5h-201v-233h200q62 0 95 31t33 87z" />
    <glyph glyph-name="afii10093" unicode="&#x44b;" horiz-adv-x="630" 
d="M536 514h38v-514h-38v514zM56 514h38v-215h197q75 0 117 -39.5t42 -108.5q0 -71 -43 -111t-118 -40h-233v514zM412 151q0 52 -33 83.5t-94 31.5h-191v-233h190q62 0 95 31t33 87z" />
    <glyph glyph-name="afii10094" unicode="&#x44c;" horiz-adv-x="488" 
d="M56 514h38v-215h207q75 0 117 -39.5t42 -108.5q0 -71 -43 -111t-118 -40h-243v514zM422 151q0 52 -33 83.5t-94 31.5h-201v-233h200q62 0 95 31t33 87z" />
    <glyph glyph-name="afii10095" unicode="&#x44d;" 
d="M168 285h277q-7 97 -55 152.5t-137 55.5q-70 0 -116 -35t-61 -95h-38q17 77 72 120t143 43q112 0 171.5 -72t59.5 -200q0 -61 -16 -110.5t-46.5 -84t-74 -53t-98.5 -18.5q-91 0 -149.5 47.5t-69.5 135.5h38q9 -72 58 -111t122 -39q94 0 145 62.5t53 168.5h-278v33z" />
    <glyph glyph-name="afii10096" unicode="&#x44e;" horiz-adv-x="730" 
d="M94 257v-257h-38v514h38v-224h132q4 49 21.5 92t47.5 75t71.5 50.5t94.5 18.5q57 0 101 -21.5t74 -58.5t45.5 -85.5t15.5 -103.5t-15.5 -104t-45.5 -85.5t-74 -58t-101 -21.5t-101 21.5t-74 58t-45.5 85.5t-15.5 104h-131zM263 257q0 -46 13 -88.5t38 -75.5t62 -52.5
t85 -19.5t85 19.5t62 52.5t38 75.5t13 88.5t-13 88.5t-38 75.5t-62 52.5t-85 19.5t-85 -19.5t-62 -52.5t-38 -75.5t-13 -88.5z" />
    <glyph glyph-name="afii10097" unicode="&#x44f;" horiz-adv-x="488" 
d="M48 0h-48l172 223q-27 3 -51.5 13.5t-42.5 28t-28.5 43t-10.5 59.5q0 66 43 106.5t118 40.5h232v-514h-38v222h-178zM394 481h-190q-61 0 -93.5 -31.5t-32.5 -82.5q0 -54 32.5 -83t89.5 -29h194v226z" />
    <glyph glyph-name="uni0450" unicode="&#x450;" 
d="M261 590l-134 140h51l120 -140h-37zM71 252v-6q0 -45 12 -86t35.5 -72t59 -49t82.5 -18q77 0 122 40.5t62 112.5h38q-17 -90 -73.5 -138t-149.5 -48q-57 0 -99.5 20.5t-71 56t-42.5 84t-14 104.5q0 54 14.5 103.5t43.5 87t72.5 60t102.5 22.5q54 0 95.5 -20t69.5 -54.5
t42.5 -80t14.5 -97.5q0 -5 -0.5 -11.5t-0.5 -10.5h-415zM448 285q-2 42 -14 79.5t-35.5 66t-57 45.5t-76.5 17q-46 0 -81 -17.5t-59 -46t-37 -66.5t-16 -78h376z" />
    <glyph glyph-name="afii10071" unicode="&#x451;" 
d="M318 603v103h44v-103h-44zM160 603v103h44v-103h-44zM71 252v-6q0 -45 12 -86t35.5 -72t59 -49t82.5 -18q77 0 122 40.5t62 112.5h38q-17 -90 -73.5 -138t-149.5 -48q-57 0 -99.5 20.5t-71 56t-42.5 84t-14 104.5q0 54 14.5 103.5t43.5 87t72.5 60t102.5 22.5
q54 0 95.5 -20t69.5 -54.5t42.5 -80t14.5 -97.5q0 -5 -0.5 -11.5t-0.5 -10.5h-415zM448 285q-2 42 -14 79.5t-35.5 66t-57 45.5t-76.5 17q-46 0 -81 -17.5t-59 -46t-37 -66.5t-16 -78h376z" />
    <glyph glyph-name="afii10099" unicode="&#x452;" 
d="M321 589h-227v-197h2q10 29 28.5 51.5t43 38.5t53.5 24t59 8q45 0 76.5 -11t51.5 -29t31.5 -40.5t16.5 -45.5t6 -44.5t1 -37.5v-227q0 -121 -57.5 -193.5t-181.5 -81.5v37q103 6 152 66.5t49 168.5v237q0 19 -3 48t-17.5 55.5t-44 45.5t-81.5 19q-44 0 -78 -16t-58 -44.5
t-36.5 -68t-12.5 -86.5v-266h-38v589h-67v33h67v92h38v-92h227v-33z" />
    <glyph glyph-name="afii10100" unicode="&#x453;" horiz-adv-x="396" 
d="M94 0h-38v514h338v-33h-300v-481zM276 730h51l-134 -140h-37z" />
    <glyph glyph-name="afii10101" unicode="&#x454;" horiz-adv-x="517" 
d="M484 171q-14 -88 -73.5 -135.5t-149.5 -47.5q-111 0 -170 71.5t-59 194.5q0 64 17 114.5t48 85.5t75.5 53.5t99.5 18.5q87 0 141.5 -42.5t66.5 -120.5h-38q-10 62 -55 96t-115 34q-89 0 -141.5 -55.5t-59.5 -152.5h277v-33h-278q2 -106 50 -168.5t142 -62.5
q73 0 122.5 39t61.5 111h38v0z" />
    <glyph glyph-name="afii10102" unicode="&#x455;" horiz-adv-x="481" 
d="M74 171q2 -36 16 -63.5t36.5 -47t52.5 -29.5t65 -10q25 0 53.5 4.5t53 16.5t40.5 33.5t16 54.5q0 43 -26 65t-65.5 34t-85 19.5t-85 22.5t-65.5 42.5t-26 80.5q0 38 17 63.5t43.5 40.5t59.5 21.5t66 6.5q40 0 75 -9t60.5 -29t40 -51t14.5 -75h-38q0 35 -11.5 60t-32 40.5
t-48.5 23t-60 7.5q-26 0 -52.5 -5t-47.5 -17t-34.5 -31t-13.5 -46q0 -31 15 -50t39.5 -30.5t55 -18.5t61.5 -14q38 -7 71.5 -16.5t58 -26t38.5 -42.5t14 -66q0 -42 -19 -69t-48 -43.5t-64.5 -23t-69.5 -6.5q-44 0 -81.5 11.5t-65.5 35t-44 57.5t-17 79h38z" />
    <glyph glyph-name="afii10103" unicode="&#x456;" horiz-adv-x="168" 
d="M65 611v103h38v-103h-38zM65 0v514h38v-514h-38z" />
    <glyph glyph-name="afii10104" unicode="&#x457;" horiz-adv-x="168" 
d="M65 0v514h38v-514h-38zM141 603v103h44v-103h-44zM-17 603v103h44v-103h-44z" />
    <glyph glyph-name="afii10105" unicode="&#x458;" horiz-adv-x="168" 
d="M65 611v103h38v-103h-38zM103 514v-569q0 -26 -4 -49.5t-15.5 -41t-32 -28t-53.5 -10.5h-16h-8t-8 1v33q5 -1 11 -1.5t14 -0.5q20 0 34 4.5t23 16t13 31t4 48.5v566h38z" />
    <glyph glyph-name="afii10106" unicode="&#x459;" horiz-adv-x="778" 
d="M438 514v-215h153q75 0 117 -39.5t42 -108.5q0 -71 -43 -111t-118 -40h-189v481h-210l-11 -290q-2 -58 -11.5 -96.5t-25.5 -62t-37.5 -33t-48.5 -9.5q-29 0 -54 11v37q14 -7 26 -9.5t26 -2.5q20 0 35.5 8.5t26.5 28t17 51.5t8 80l12 320h285zM712 151q0 52 -33 83.5
t-94 31.5h-147v-233h146q62 0 95 31t33 87z" />
    <glyph glyph-name="afii10107" unicode="&#x45a;" horiz-adv-x="772" 
d="M418 299h167q75 0 117 -39.5t42 -108.5q0 -71 -43 -111t-118 -40h-203v266h-286v-266h-38v514h38v-215h286v215h38v-215zM706 151q0 52 -33 83.5t-94 31.5h-161v-233h160q62 0 95 31t33 87z" />
    <glyph glyph-name="afii10108" unicode="&#x45b;" 
d="M321 589h-227v-197h2q10 29 28.5 51.5t43 38.5t53.5 24t59 8q45 0 76.5 -11t51.5 -29t31.5 -40.5t16.5 -45.5t6 -44.5t1 -37.5v-306h-38v313q0 19 -3 48t-17.5 55.5t-44 45.5t-81.5 19q-44 0 -78 -16t-58 -44.5t-36.5 -68t-12.5 -86.5v-266h-38v589h-67v33h67v92h38v-92
h227v-33z" />
    <glyph glyph-name="afii10109" unicode="&#x45c;" horiz-adv-x="463" 
d="M58 514h38v-281l317 281h55l-225 -200l241 -314h-52l-219 285l-117 -99v-186h-38v514zM317 730h51l-134 -140h-37z" />
    <glyph glyph-name="uni045D" unicode="&#x45d;" 
d="M425 462h-1l-321 -462h-47v514h38v-464h1l320 464h48v-514h-38v462zM259 590l-134 140h51l120 -140h-37z" />
    <glyph glyph-name="afii10110" unicode="&#x45e;" horiz-adv-x="444" 
d="M365 720q-3 -24 -14.5 -46t-29 -38.5t-40 -26t-47.5 -9.5q-57 0 -95 31.5t-45 88.5h33q6 -26 18 -43t26.5 -27t30.5 -13.5t31 -3.5q39 0 65.5 24t33.5 63h33zM-6 514h45l191 -469l176 469h43l-220 -569q-16 -38 -29.5 -65.5t-30.5 -40.5q-20 -16 -47.5 -19.5t-72.5 -3.5
v33q41 0 64 6.5t43 26.5q11 11 23 40.5t30 80.5z" />
    <glyph glyph-name="afii10193" unicode="&#x45f;" 
d="M56 0v514h38v-481h331v481h38v-514h-184v-161h-38v161h-185z" />
    <glyph glyph-name="afii10146" unicode="&#x462;" horiz-adv-x="686" 
d="M-13 609h152v105h44v-105h224v-38h-224v-170h259q100 0 157 -52t57 -148q0 -46 -15 -83t-43.5 -63.5t-68.5 -40.5t-90 -14h-300v571h-152v38zM435 38q82 0 129.5 42.5t47.5 120.5t-47 120t-129 42h-253v-325h252z" />
    <glyph glyph-name="afii10194" unicode="&#x463;" horiz-adv-x="554" 
d="M122 481h-125v33h125v200h38v-200h194v-33h-194v-182h207q75 0 117 -39.5t42 -108.5q0 -71 -43 -111t-118 -40h-243v481zM488 151q0 52 -33 83.5t-94 31.5h-201v-233h200q62 0 95 31t33 87z" />
    <glyph glyph-name="afii10147" unicode="&#x472;" horiz-adv-x="741" 
d="M710 357q0 -78 -23 -146.5t-66.5 -119t-106.5 -79.5t-143 -29t-143.5 29t-107 79.5t-66.5 119t-23 146.5t23 146.5t66.5 119t107 79.5t143.5 29t143 -29t106.5 -79.5t66.5 -119t23 -146.5zM371 693q-66 0 -118.5 -23.5t-90.5 -65t-60 -96.5t-27 -118h590q-5 63 -27 118
t-59.5 96.5t-90 65t-117.5 23.5zM371 21q69 0 123.5 26.5t92.5 71.5t58.5 105t21.5 128h-593q1 -68 21 -128t58.5 -105t93 -71.5t124.5 -26.5z" />
    <glyph glyph-name="afii10195" unicode="&#x473;" horiz-adv-x="537" 
d="M32 257q0 55 15.5 103.5t45.5 85.5t74 58.5t101 21.5t101 -21.5t74 -58.5t45.5 -85.5t15.5 -103.5t-15.5 -104t-45.5 -85.5t-74 -58t-101 -21.5t-101 21.5t-74 58t-45.5 85.5t-15.5 104zM268 493q-44 0 -79 -17t-60.5 -45.5t-40 -66t-18.5 -79.5h396q-4 42 -18.5 79.5
t-40 66t-60.5 45.5t-79 17zM268 21q47 0 84 19t62 51t38.5 74t14.5 87h-398q1 -45 14.5 -87t38.5 -74t62 -51t84 -19z" />
    <glyph glyph-name="afii10148" unicode="&#x474;" horiz-adv-x="598" 
d="M487 636q19 55 47 75t64 20q10 0 19 -1.5t20 -4.5v-39q-12 4 -19.5 5.5t-16.5 1.5q-24 0 -42 -14t-33 -57l-223 -622h-51l-266 714h46l245 -676h2z" />
    <glyph glyph-name="afii10196" unicode="&#x475;" horiz-adv-x="460" 
d="M370 445q16 46 38.5 63.5t54.5 17.5q18 0 34 -4v-34q-9 3 -16.5 4t-15.5 1q-21 0 -34 -13t-25 -48l-154 -432h-47l-207 514h44l186 -470h2z" />
    <glyph glyph-name="afii10050" unicode="&#x490;" horiz-adv-x="485" 
d="M63 714h388v168h43v-206h-387v-676h-44v714z" />
    <glyph glyph-name="afii10098" unicode="&#x491;" horiz-adv-x="396" 
d="M94 0h-38v514h296v159h38v-192h-296v-481z" />
    <glyph glyph-name="gravecmb" unicode="&#x300;" horiz-adv-x="0" 
d="M-33 590l-134 140h51l120 -140h-37z" />
    <glyph glyph-name="acutecmb" unicode="&#x301;" horiz-adv-x="0" 
d="M-47 730h51l-134 -140h-37z" />
    <glyph glyph-name="circumflexcmb" unicode="&#x302;" horiz-adv-x="0" 
d="M-12 730l116 -140h-38l-98 115l-97 -115h-38l115 140h40z" />
    <glyph glyph-name="tildecmb" unicode="&#x303;" horiz-adv-x="0" 
d="M-167 609q1 16 7 32.5t15.5 29t23.5 20.5t32 8q19 0 37 -9t35 -19.5t33.5 -19.5t31.5 -9q21 0 32 18.5t13 38.5h29q-2 -17 -7 -33t-14 -28.5t-22.5 -20.5t-32.5 -8q-17 0 -34 9t-34.5 19.5t-34.5 19.5t-34 9q-20 0 -31.5 -17t-15.5 -40h-29z" />
    <glyph glyph-name="macroncmb" unicode="&#x304;" horiz-adv-x="0" 
d="M-167 638v33h242v-33h-242z" />
    <glyph glyph-name="brevecmb" unicode="&#x306;" horiz-adv-x="0" 
d="M104 720q-3 -24 -14.5 -46t-29 -38.5t-40 -26t-47.5 -9.5q-57 0 -95 31.5t-45 88.5h33q6 -26 18 -43t26.5 -27t30.5 -13.5t31 -3.5q39 0 65.5 24t33.5 63h33z" />
    <glyph glyph-name="dotaccentcmb" unicode="&#x307;" horiz-adv-x="0" 
d="M-167 603v103h44v-103h-44z" />
    <glyph glyph-name="dieresiscmb" unicode="&#x308;" horiz-adv-x="0" 
d="M-9 603v103h44v-103h-44zM-167 603v103h44v-103h-44z" />
    <glyph glyph-name="hookabovecmb" unicode="&#x309;" horiz-adv-x="0" 
d="M-321 673q-7 0 -16 -0.5t-16 -2.5l-3 27q8 2 18 2.5t17 0.5q48 0 71.5 -19.5t23.5 -48.5q0 -28 -21 -48.5t-50 -26.5l-1 -20h-30v37q31 2 49.5 17.5t18.5 38.5q0 18 -15.5 30.5t-45.5 12.5z" />
    <glyph glyph-name="ringcmb" unicode="&#x30a;" horiz-adv-x="0" 
d="M-167 670q0 42 28.5 70.5t70.5 28.5t70.5 -28.5t28.5 -70.5t-28.5 -70.5t-70.5 -28.5t-70.5 28.5t-28.5 70.5zM-140 670q0 -30 21 -51t51 -21t51 21t21 51t-21 51t-51 21t-51 -21t-21 -51z" />
    <glyph glyph-name="hungarumlautcmb" unicode="&#x30b;" horiz-adv-x="0" 
d="M-9 590l120 140h51l-134 -140h-37zM-167 590l120 140h51l-134 -140h-37z" />
    <glyph glyph-name="caroncmb" unicode="&#x30c;" horiz-adv-x="0" 
d="M-52 590l-115 140h38l97 -115l98 115h38l-116 -140h-40z" />
    <glyph glyph-name="doublegravecmb" unicode="&#x30f;" horiz-adv-x="0" 
d="M-33 590l-134 140h51l120 -140h-37zM-191 590l-134 140h51l120 -140h-37z" />
    <glyph glyph-name="invertedbrevecmb" unicode="&#x311;" horiz-adv-x="0" 
d="M-33 600q-7 39 -33.5 63t-65.5 24q-15 0 -31 -4t-30.5 -13.5t-26.5 -26.5t-18 -43h-33q7 57 45 88.5t95 31.5q25 0 47.5 -9.5t40 -26t29 -38.5t14.5 -46h-33z" />
    <glyph glyph-name="dotbelowcmb" unicode="&#x323;" horiz-adv-x="0" 
d="M-278 -70h51v-103h-51v103z" />
    <glyph glyph-name="dieresisbelowcmb" unicode="&#x324;" horiz-adv-x="0" 
d="M-9 -173v103h44v-103h-44zM-167 -173v103h44v-103h-44z" />
    <glyph glyph-name="ringbelowcmb" unicode="&#x325;" horiz-adv-x="0" 
d="M-167 -169q0 42 28.5 70.5t70.5 28.5t70.5 -28.5t28.5 -70.5t-28.5 -70.5t-70.5 -28.5t-70.5 28.5t-28.5 70.5zM-140 -169q0 -30 21 -51t51 -21t51 21t21 51t-21 51t-51 21t-51 -21t-21 -51z" />
    <glyph glyph-name="commabelowcmb" unicode="&#x326;" horiz-adv-x="0" 
d="M-265 -70h51v-103q0 -20 -3 -39.5t-10.5 -36.5t-20 -30t-30.5 -20v33q11 5 17.5 16.5t10.5 25t5 27.5t1 24h-21v103z" />
    <glyph glyph-name="cedillacmb" unicode="&#x327;" horiz-adv-x="0" 
d="M-42 0l-48 -56l1 -1q17 7 38 7q31 0 52.5 -16.5t21.5 -50.5q0 -40 -28 -59.5t-70 -19.5q-29 0 -51 7t-41 18l11 24q17 -9 36.5 -15.5t43.5 -6.5q27 0 44 13t17 37q0 19 -14.5 31t-37.5 12q-14 0 -26 -3.5t-23 -8.5l-16 13l56 75h34z" />
    <glyph glyph-name="ogonekcmb" unicode="&#x328;" horiz-adv-x="0" 
d="M-41 0q-25 -22 -41 -39t-25 -31.5t-12.5 -26.5t-3.5 -24q0 -20 12.5 -31t30.5 -11q19 0 32 7.5t26 27.5l23 -8q-25 -60 -86 -60q-37 0 -59.5 16.5t-22.5 51.5q0 12 4 25t15 29t31 34.5t52 39.5h24z" />
    <glyph glyph-name="circumflexbelowcmb" unicode="&#x32d;" horiz-adv-x="0" 
d="M-12 -70l116 -140h-38l-98 115l-97 -115h-38l115 140h40z" />
    <glyph glyph-name="brevebelowcmb" unicode="&#x32e;" horiz-adv-x="0" 
d="M104 -70q-3 -24 -14.5 -46t-29 -38.5t-40 -26t-47.5 -9.5q-57 0 -95 31.5t-45 88.5h33q6 -26 18 -43t26.5 -27t30.5 -13.5t31 -3.5q39 0 65.5 24t33.5 63h33z" />
    <glyph glyph-name="tildebelowcmb" unicode="&#x330;" horiz-adv-x="0" 
d="M-167 -160q1 16 7 32.5t15.5 29t23.5 20.5t32 8q19 0 37 -9t35 -19.5t33.5 -19.5t31.5 -9q21 0 32 18.5t13 38.5h29q-2 -17 -7 -33t-14 -28.5t-22.5 -20.5t-32.5 -8q-17 0 -34 9t-34.5 19.5t-34.5 19.5t-34 9q-20 0 -31.5 -17t-15.5 -40h-29z" />
    <glyph glyph-name="macronbelowcmb" unicode="&#x331;" horiz-adv-x="0" 
d="M-167 -103v33h242v-33h-242z" />
    <glyph glyph-name="clickdental" unicode="&#x1c0;" horiz-adv-x="222" 
d="M92 786h38v-1000h-38v1000z" />
    </font>
</defs>
</svg>
